Посрами Дьявола / Shame the Devil ( Пол Тантер/ Paul Tanter) [Триллер, Криминал, 2013] (BDRip) [720p]

 

Создавать темы 05-Фев-2014 07:18

Посрами Дьявола / Shame the Devil- Год выпуска: 2013
Производство: Великобритания
Жанр: Триллер, Криминал
Перевод: Одноголосый закадровый, любительский (Xixidok)
Субтитры: Отсутствуют
Дата мировой премьеры: 2 декабря 2013
Режиссер: Пол Тантер
Продюсер: Линдон Бэлдок, Тоби Мередит, Билли Мюррэй
Актеры: Саймон Филлипс, Джульетт Беннетт, Уилл Де Мео, Брэдфорд Уэст, Даг Брэдли, Келли Ширли, Питер Вудворд, Питер Баррет, Люси Клементс, Джек Мюррэй
Описание фильма:
Полицейский из Лондона расследует дело серийного маньяка, убивающего своих жертв с помощью детектора лжи.

Продолжительность: 01:34:41
Качество видео: BDRip
Видеокодек: MPEG-4 AVC/H.264
Битрейт видео: ~4400 Kbit/s
Размер кадра: 1280 x 544
Аудио #1: AC3, 44,1 КHz, 2.0, 192 Kbit/s - Русский
Aудио #2: DTS, 48,0 КHz, 5.1, 1510 Kbit/s - Aнглийский

MediaInfo

Общее
Уникальный идентификатор         : 174900885100288343422583352743016750043 (0x8394AF68B4EB391DA73AC674D97B5BDB)
Формат                           : Matroska
Размер файла                     : 4,04 Гбайт
Продолжительность                : 1 ч. 34 м.
Общий поток                      : 6104 Кбит/сек
Дата кодирования                 : UTC 2014-02-01 21:46:25
Программа кодирования            : mkvmerge v6.7.0 ('Back to the Ground') 64bit built on Jan  8 2014 15:10:52
Библиотека кодирования           : libebml v1.3.0 + libmatroska v1.4.1
Видео
Идентификатор                    : 1
Формат                           : AVC
Формат/Информация                : Advanced Video Codec
Профиль формата                  : [url=mailto:[email protected]][email protected][/url]
Параметр CABAC формата           : Да
Параметр ReFrames формата        : 4 кадра
Идентификатор кодека             : V_MPEG4/ISO/AVC
Продолжительность                : 1 ч. 34 м.
Битрейт                          : 4400 Кбит/сек
Ширина                           : 1280 пикс.
Высота                           : 544 пикс.
Соотношение сторон               : 2,35:1
Частота кадров                   : 23,976 кадр/сек
Цветовое пространство            : YUV
Подвыборка цветности             : 4:2:0
Битовая глубина                  : 8 бит
Тип развёртки                    : Прогрессивная
Бит/(Пиксели*Кадры)              : 0.264
Размер потока                    : 2,83 Гбайт (70%)
Библиотека кодирования           : x264 core 125 r2200 999b753
Настройки программы              : cabac=1 / ref=1 / deblock=1:0:0 / analyse=0x3:0x113 / me=hex / subme=4 / psy=1 / psy_rd=1.00:0.00 / mixed_ref=0 / me_range=16 / chroma_me=1 / trellis=0 / 8x8dct=1 / cqm=0 / deadzone=21,11 / fast_pskip=1 / chroma_qp_offset=0 / threads=6 / lookahead_threads=1 / sliced_threads=0 / nr=0 / decimate=1 / interlaced=0 / bluray_compat=0 / constrained_intra=0 / bframes=3 / b_pyramid=2 / b_adapt=1 / b_bias=0 / direct=3 / weightb=1 / open_gop=0 / weightp=2 / keyint=240 / keyint_min=23 / scenecut=40 / intra_refresh=0 / rc_lookahead=40 / rc=2pass / mbtree=1 / bitrate=4400 / ratetol=1.0 / qcomp=0.50 / qpmin=10 / qpmax=51 / qpstep=4 / cplxblur=20.0 / qblur=0.5 / vbv_maxrate=24000 / vbv_bufsize=24000 / nal_hrd=none / ip_ratio=1.10 / aq=1:1.00
Язык                             : English
Аудио #1
Идентификатор                    : 2
Формат                           : AC-3
Формат/Информация                : Audio Coding 3
Расширение режима                : CM (complete main)
Идентификатор кодека             : A_AC3
Продолжительность                : 1 ч. 34 м.
Вид битрейта                     : Постоянный
Битрейт                          : 192 Кбит/сек
Каналы                           : 2 канала
Расположение каналов             : Front: L R
Частота                          : 44,1 КГц
Битовая глубина                  : 16 бит
Метод сжатия                     : С потерями
Задержка видео                   : 17 мс.
Размер потока                    : 130 Мбайт (3%)
Заголовок                        : ХиХиДок
Язык                             : Russian
Аудио #2
Идентификатор                    : 3
Формат                           : DTS
Формат/Информация                : Digital Theater Systems
Идентификатор кодека             : A_DTS
Продолжительность                : 1 ч. 34 м.
Вид битрейта                     : Постоянный
Битрейт                          : 1510 Кбит/сек
Каналы                           : 6 каналов
Расположение каналов             : Front: L C R, Side: L R, LFE
Частота                          : 48,0 КГц
Битовая глубина                  : 24 бит
Метод сжатия                     : С потерями
Размер потока                    : 1023 Мбайт (25%)
Язык                             : English
Скриншоты:

Яндекс.Метрика
Рейтинг@Mail.ru