История СС: восхождение к власти / Inside the SS (2017) WEB-DLRip [H.264] (2 серии из 2)

 

Создавать темы 19-Май-2018 13:34

История СС: восхождение к власти / Inside the SS- Производство: Франция, National Geographic
Жанр: Документальный, война, история-Во время Второй мировой войны СС - целая армия людей, считавших себя «элитой человечества», развязала в Европе настоящий террор против мирного населения. С помощью редких архивных кадров, этот фильм прослеживает кровавую историю СС о которой не принято говорить до сих пор ...-Продолжительность: 2 x ~ 00:43:59
Качество видео: WEB-DLRip
Перевод: Документальный дубляж (голос рассказчика - дубляж, интервью - одноголосый закадровый перевод)
Видео: AVC/H.264, 1024х576, ~2300 Kbps
Аудио 1: AC3, 2 ch, 192 Kbps | Русский
Аудио 2: AC3, 2 ch, 192 Kbps | Английский

Список выпусков/серий

1. Элита зла Гитлера / Hitler’s evil Elite
Гитлер создал свои войска СС в 1925 году, в виде своей личной армии (охранных отрядов), которая должна была быть ему верной до самой его смерти. Молодые немецкие солдаты, согласившиеся служить в СС, мечтали том, чтобы стать элитой III-го Рейха, формировавшейся по расовому признаку.
2. Машины-убийцы Гитлера / Hitler’s Killing Machine
Во время Второй мировой войны Гитлер поручил СС истребить всех указанных им врагов режима.

Mediainfo:

Общее
Уникальный идентификатор : 220938591521359941572250285794500052225 (0xA6373994E489AEDFABA10CB6A6108501)
Полное имя : E:\Запись\История СС восхождение к власти\NG.История.СС.восхождение.к.власти.2017.AVC.WEB-DLRip.alf62\1.Элита.зла.Гитлера .2017.AVC.WEB-DLRip.alf62.mkv
Формат : Matroska
Версия формата : Version 4 / Version 2
Размер файла : 845 Мбайт
Продолжительность : 43 м.
Общий поток : 2687 Кбит/сек
Дата кодирования : UTC 2018-05-15 22:38:34
Программа кодирования : mkvmerge v6.6.0 ('The Edge Of The In Between') built on Dec 1 2013 17:55:00
Библиотека кодирования : libebml v1.3.0 + libmatroska v1.4.1
Видео
Идентификатор : 1
Формат : AVC
Формат/Информация : Advanced Video Codec
Профиль формата : [email protected]
Параметр CABAC формата : Да
Параметр ReFrames формата : 8 кадров
Идентификатор кодека : V_MPEG4/ISO/AVC
Продолжительность : 43 м.
Битрейт : 2300 Кбит/сек
Ширина : 1024 пикселя
Высота : 576 пикселей
Соотношение сторон : 16:9
Режим частоты кадров : Постоянный
Частота кадров : 25,000 кадров/сек
Цветовое пространство : YUV
Субдискретизация насыщенности : 4:2:0
Битовая глубина : 8 бит
Тип развёртки : Прогрессивная
Бит/(Пиксели*Кадры) : 0.156
Размер потока : 708 Мбайт (84%)
Библиотека кодирования : x264 core 146 r2538 121396c
Настройки программы : cabac=1 / ref=8 / deblock=1:-1:-1 / analyse=0x3:0x113 / me=umh / subme=10 / psy=1 / psy_rd=1.00:0.00 / mixed_ref=1 / me_range=32 / chroma_me=1 / trellis=2 / 8x8dct=1 / cqm=0 / deadzone=21,11 / fast_pskip=0 / chroma_qp_offset=-2 / threads=6 / lookahead_threads=1 / sliced_threads=0 / nr=0 / decimate=0 / interlaced=0 / bluray_compat=0 / constrained_intra=0 / bframes=8 / b_pyramid=2 / b_adapt=2 / b_bias=0 / direct=3 / weightb=1 / open_gop=0 / weightp=2 / keyint=250 / keyint_min=25 / scenecut=40 / intra_refresh=0 / rc_lookahead=40 / rc=2pass / mbtree=1 / bitrate=2300 / ratetol=1.0 / qcomp=0.60 / qpmin=10 / qpmax=51 / qpstep=4 / cplxblur=20.0 / qblur=0.5 / vbv_maxrate=14000 / vbv_bufsize=14000 / nal_hrd=none / filler=0 / ip_ratio=1.40 / aq=1:0.80
Default : Да
Forced : Нет
Аудио #1
Идентификатор : 2
Формат : AC-3
Формат/Информация : Audio Coding 3
Расширение режима : CM (complete main)
Параметр Endianness формата : Big
Идентификатор кодека : A_AC3
Продолжительность : 43 м.
Вид битрейта : Постоянный
Битрейт : 192 Кбит/сек
Каналы : 2 канала
Расположение каналов : Front: L R
Частота : 48,0 КГц
Битовая глубина : 16 бит
Метод сжатия : С потерями
Размер потока : 60,4 Мбайт (7%)
Default : Да
Forced : Нет
Аудио #2
Идентификатор : 3
Формат : AC-3
Формат/Информация : Audio Coding 3
Расширение режима : CM (complete main)
Параметр Endianness формата : Big
Идентификатор кодека : A_AC3
Продолжительность : 43 м.
Вид битрейта : Постоянный
Битрейт : 192 Кбит/сек
Каналы : 2 канала
Расположение каналов : Front: L R
Частота : 48,0 КГц
Битовая глубина : 16 бит
Метод сжатия : С потерями
Размер потока : 60,4 Мбайт (7%)
Default : Нет
Forced : Нет

Рейтинг@Mail.ru