Дискотека 80-х [Полная версия] (2017) DVD-9

 

Создавать темы 25-Фев-2018 17:13

Дискотека 80-х [Полная версия]--- Информация о диске
Название: Дискотека 80-х [Полная версия] (2017) DVD-9
Год выхода: 2017
Жанр: Disco
Режиссер: первый канал
В ролях: Ottawan,Валерий Сюткин,Joy,Максим Леонидов,Smokie,C.C.Catch,Bonnie Tyler и др.
О диске:
Это не просто история, не просто музыка – это время первой любви и первых поцелуев, настоящей дружбы и неподдельного счастья, это чувство – то самое чувство, когда тебе снова 16 лет! Прошло столько времени, но стоит оказаться на танцполе «Дискотеки 80-х» и все сразу оживает в памяти.
25 ноября 2017 года в столичном СК «Олимпийский» прошёл 16-й Международный музыкальный фестиваль «Авторадио» – «Дискотека 80-х».
Дол.информация:
присутствует две аудио дорожки на выбор. Первая на треках взята с телеверсии 1 канала, вторая с интернет трансляции.-Страна: Россия
Продолжительность: 03:50:31
Перевод: не требуется
Файл
Формат: DVD Video
Качество: DVD-9
Видео: 720x576, (16:9) PAL, 4444 Кбит/сек, 25,000 кадр/сек
Звук-1: AC-3, 192 Кбит/сек, 2ch
Звук-2: AC-3, 192 Кбит/сек, 2ch
Субтитры: отсутствуют

MediaInfo:

Общее
Полное имя : C:\Users\Admin\Desktop\Дискотека 80-х 2017 год (DVD-9)\VIDEO_TS\VTS_01_1.VOB
Формат : MPEG-PS
Размер файла : 1024 Мбайт
Продолжительность : 29 м. 3 с.
Режим общего битрейта : Переменный
Общий поток : 4926 Кбит/сек
Видео
Идентификатор : 224 (0xE0)
Формат : MPEG Video
Версия формата : Version 2
Профиль формата : [email protected]
Параметр BVOP формата : Нет
Параметр матрицы формата : По умолчанию
Параметр GOP формата : N=15
Продолжительность : 29 м. 3 с.
Вид битрейта : Переменный
Битрейт : 4444 Кбит/сек
Максимальный битрейт : 9000 Кбит/сек
Ширина : 720 пикселей
Высота : 576 пикселей
Соотношение сторон : 16:9
Частота кадров : 25,000 кадров/сек
Стандарт вещания : PAL
Цветовое пространство : YUV
Субдискретизация насыщенности : 4:2:0
Битовая глубина : 8 бит
Тип развёртки : Прогрессивная
Метод сжатия : С потерями
Бит/(Пиксели*Кадры) : 0.429
Размер потока : 924 Мбайт (90%)
Аудио #1
Идентификатор : 189 (0xBD)-128 (0x80)
Формат : AC-3
Формат/Информация : Audio Coding 3
Продолжительность : 29 м. 3 с.
Вид битрейта : Постоянный
Битрейт : 192 Кбит/сек
Каналы : 2 канала
Расположение каналов : Front: L R
Частота : 48,0 КГц
Битовая глубина : 16 бит
Метод сжатия : С потерями
Размер потока : 39,9 Мбайт (4%)
Аудио #2
Идентификатор : 189 (0xBD)-129 (0x81)
Формат : AC-3
Формат/Информация : Audio Coding 3
Продолжительность : 29 м. 3 с.
Вид битрейта : Постоянный
Битрейт : 192 Кбит/сек
Каналы : 2 канала
Расположение каналов : Front: L R
Частота : 48,0 КГц
Битовая глубина : 16 бит
Метод сжатия : С потерями
Размер потока : 39,9 Мбайт (4%)

Треклист:

01. Начало Дискотеки 80-х
02. Ottawan — D.I.S.C.O
03. Ottawan — Hands Up
04. Валерий Сюткин — Любите, девушки
05. Валерий Сюткин - Московский бит
06. Joy — Valerie
07. Joy — Night Of The Nights
08. Joy - Touch By Touch
09. Сергей Беликов — Радуга
10. Samantha Fox — Touch Me
11. Samantha Fox — Nothing's Gonna Stop Me Now
12. Samantha Fox - Hot Stuff
13. Максим Леонидов — Привет
14. Максим Леонидов — Алиса
15. Игорь Саруханов - Позади крутой поворот
16. Pupo — Gelato Al Cioccolato
17. Pupo — Su Di Noi
18. Pupo — Lo Devo Solo A Te
19. Константин Никольский — Музыкант
20. Константин Никольский - Бури и метели
21. Константин Никольский - Один взгляд назад
22. Boney M/Liz Mitchell — Rasputin
23. Boney M./Liz Mitchell - Rivers of Babylon
24. Boney M/Liz Mitchell — Sunny
25. Стас Намин и гр.Цветы — Рано прощаться
26. Стас Намин и гр.Цветы - Летний вечер
27. Стас Намин и гр.Цветы — Мы желаем счастья Вам
28. Bad Boys Blue» — You're A Woman
29. Bad Boys Blue» — Pretty Young Girl
30. Александр Иванов/Рондо — Тоже является часть Вселенной
31. Александр Иванов/Владимир Пресняков/Рондо — Я буду помнить
32. Владимир Пресняков — Стюардесса по имени Жанна
33. Smokie — Needles And Pins
34. Smokie - What Can I Do
35. Smokie — Living Next Door To Alice
36. Bonnie Tyler — It's A Heartache
37. Bonnie Tyler - Total Eclipse of The Heart
38. Bonnie Tyler — Holding Out For A Hero
39. Юрий Лоза — Плот
40. Юрий Лоза - Девочка в баре
41. Ricchi E Poveri — Made in Italy
42. Ricchi E Poveri - Cosa Sei
43. Ricchi E Poveri — Se Mi Innamaro
44. Юрий Шатунов — Белые розы
45. Юрий Шатунов - Розовый вечер
46. Юрий Шатунов — Детство
47. Юрий Шатунов — Седая ночь
48. C.C. Catch — I Can Lose My Heart Tonight
49. C.C.Catch - Heaven And Hell
50. C.C. Catch — Anniversary Megamix
51. Гимн Авторадио

Скриншоты меню

Скриншоты

Релиз от: Rmk80disco (Sidr8691)
Рейтинг@Mail.ru