Паганини: Скрипач Дьявола / The Devil's Violinist (Бернард Роу / Bernard Rose) [2013 г., драма, биография, WEB-DL] Dub

 

Создавать темы 02-Фев-2014 05:12

-Паганини: Скрипач Дьявола / The Devil's Violinist-- Производство: Германия, Италия
Год выпуска: 2013 г.
Жанр: драма, биография
Продолжительность: 01:57:01
Мировая премьера: 31 октября 2013
Российская премьера: 28 ноября 2013, «Люксор»
Перевод: Профессиональный (полное дублирование)
Режиссер: Бернард Роу / Bernard Rose-В ролях: Питер Р. Бишоп, Томас Антон, Андреа Дэк, Оливия Дабо, Хельмут Бергер, Вероника Феррес, Кристиан МакКэй, Джоэли Ричардсон, Джаред Харрис, Дэвид Гэрретт
Роли дублировали: Антон Савенков, Валерий Сторожик, Мария Иващенко, Александр Белый, Анастасия Лапина...-Описание: Имя скрипача Никколо Паганини еще при жизни стало легендой. Что не удивительно, ведь его непревзойденный талант покорил сначала Париж, потом всю Европу, а затем и весь мир. Сама личность Паганини, окутанная ореолом мистики и таинственности, неизбежно привела к возникновению самых разнообразных слухов. Среди них была и уверенность в том, что он продал душу дьяволу, чтобы обрести свой талант. Слава и развращает, и мучает музыканта, вино и опиум приносят лишь временное утешение, и все больше ощущается странная всепоглощающая пустота…Во время гастролей в Лондоне Паганини встречает девушку с ангельским голосом и чистой душой, которую, казалось, ему было суждено повстречать. Но сможет ли человек, играющий на дьявольской скрипке, познать счастье? Или за дар придется расплачиваться единственной любовью?-
Качество видео: WEB-DL
Контейнер: MPG
Видео кодек: MPEG2
Аудио кодек: AC3
Видео: MPEG 2, [email protected] (16:9), 25.000 fps, 15.0 Mbps (0.371 bit/pixel)
Аудио: русский, AC3, 48.0 KHz, 6 ch, 448 Kbps, CBR
Cубтитры: отсутствуют

Media Info

General
Complete name : E:\DVDRip\Paganini.Skripach.Dyavola.2013.mpg
Format : MPEG-PS
File size : 3.58 GiB
Duration : 1h 57mn
Overall bit rate : 4 378 Kbps
Video
ID : 224 (0xE0)
Format : MPEG Video
Format version : Version 2
Format profile : [email protected]
Format settings, Matrix : Default
Duration : 1h 57mn
Bit rate mode : Variable
Bit rate : 3 756 Kbps
Nominal bit rate : 15.0 Mbps
Width : 720 pixels
Height : 576 pixels
Display aspect ratio : 16/9
Frame rate : 25.000 fps
Standard : PAL
Colorimetry : 4:2:0
Scan type : Interlaced
Scan order : Top Field First
Bits/(Pixel*Frame) : 0.362
Stream size : 3.07 GiB (86%)
Audio
ID : 128 (0x80)
Format : AC-3
Format/Info : Audio Coding 3
Duration : 1h 57mn
Bit rate mode : Constant
Bit rate : 448 Kbps
Channel(s) : 6 channels
Channel positions : Front: L C R, Surround: L R, LFE
Sampling rate : 48.0 KHz
Video delay : 25ms
Stream size : 375 MiB (10%)

Скриншот c названием фильма

Скриншоты

Яндекс.Метрика
Рейтинг@Mail.ru