Стихийные бедствия: Cилы природы / Natural Disasters: Forces of Nature (Джордж Кэйси / George Casey) [2004 г., Документальный, короткометражка, BDRip, 720p] VO [Sub Rus, + Original (Eng)]

 

Создавать темы 31-Янв-2014 16:29

Стихийные бедствия: Cилы природы / Natural Disasters: Forces of Nature
-Производство: США, Graphic Films
Жанр: Документальный, короткометражка
Год выпуска: 2004 г.
Продолжительность: 00:40:23
Перевод: Профессиональный (одноголосый, закадровый) (Владимир Курдов)
Автор(ы) перевода: Александр Кривцов
Редактор: Елена Акулова
Оригинальный аудиопоток: английский-Режиссер: Джордж Кэйси / George Casey
Сценарий: Моз Ричардс
Продюсер: Джордж Кэйси, Paul Novros, Грег Элиасон
Оператор: Шон Кэйси, Джеймс Нейхаус
Композитор: Сэм Кардон
Монтаж: Стивен Л. Джонсон-В ролях: Kevin Bacon / Кевин Бейкон, Мари Эдмондс, Росс Стейн, Джошуа Вурман
Рассказчик: Kevin Bacon / Кевин Бейкон (Владимир Курдов)-Описание: Вулканы, землетрясения и торнадо могут причинить огромный ущерб, и очень важно предсказать где они произойдут. Вулканолог доктор Мария Эдмондс разработала датчики, которые следят за активностью магмы под землёй, чтобы точнее предсказать извержения на карибском острове Монсеррат - месте, где производились съёмки крупного извержения в 1995 году для этого фильма. Геофизик доктор Росс Стейн изучал столетние записи о ремонтах после землетрясений в Соборе Святой Софии в Стамбуле, чтобы найти историческую связь землетрясений в Турции. Он обнаруживает рисунок землетрясений вдоль протяжённого Северо-Анатолийского разлома, включая разрушительное землятресение в Измите в 1999 году, и предсказывает следующее землетрясение всего в нескольких милях южнее Стамбула. Доктор Джошуа Вурман со своей командой гоняется за торнадо на грузовиках, оснащённых радаром Допплера, в попытке разобраться изнутри как же они зарождаются.-Качество видео: BDRip
Контейнер: MKV
Стандарт разрешения: 720p
Видео кодек: H.264
Аудио кодек: AC3
Видео: 3863 Кбит/сек; 1280*720 (16:9); 23,976 кадров/сек; AVC; 0.175 бит/пиксель
Аудио: Русский; 640 Кбит/сек; 48,0 КГц; 16 бит; 6 каналов; АС-3
Аудио #2: Английский; 640 Кбит/сек; 48,0 КГц; 16 бит; 6 каналов; АС-3
Cубтитры: русские

Media Info

Общее
Уникальный идентификатор : 243943657418334666134354607964929888948 (0xB785D6E69F8C00B88497368EA0C392B4)
Формат : Matroska
Версия формата : Version 4 / Version 2
Размер файла : 1,48 Гбайт
Продолжительность : 40 м.
Общий поток : 5247 Кбит/сек
Дата кодирования : UTC 2013-05-03 07:19:00
Программа кодирования : mkvmerge v6.1.0 ('Old Devil') built on Mar 2 2013 14:32:37
Библиотека кодирования : libebml v1.3.0 + libmatroska v1.4.0
Видео
Идентификатор : 1
Формат : AVC
Формат/Информация : Advanced Video Codec
Профиль формата : [email protected]
Параметр CABAC формата : Да
Параметр ReFrames формата : 8 кадров
Идентификатор кодека : V_MPEG4/ISO/AVC
Продолжительность : 40 м.
Битрейт : 3863 Кбит/сек
Ширина : 1280 пикселей
Высота : 720 пикселей
Соотношение сторон : 16:9
Режим частоты кадров : Постоянный
Частота кадров : 23,976 кадра/сек
Цветовое пространство : YUV
Субдискретизация насыщенности : 4:2:0
Битовая глубина : 8 бит
Тип развёртки : Прогрессивная
Бит/(Пиксели*Кадры) : 0.175
Размер потока : 1,09 Гбайт (74%)
Заголовок : Natural Disasters: Forces of Nature (2004)
Библиотека кодирования : x264 core 130 r2273 b3065e6
Настройки программы : cabac=1 / ref=8 / deblock=1:0:0 / analyse=0x3:0x113 / me=umh / subme=10 / psy=1 / psy_rd=1.00:0.00 / mixed_ref=1 / me_range=48 / chroma_me=1 / trellis=2 / 8x8dct=1 / cqm=0 / deadzone=21,11 / fast_pskip=1 / chroma_qp_offset=-2 / threads=6 / lookahead_threads=1 / sliced_threads=0 / nr=0 / decimate=1 / interlaced=0 / bluray_compat=0 / constrained_intra=0 / bframes=3 / b_pyramid=2 / b_adapt=2 / b_bias=0 / direct=1 / weightb=1 / open_gop=0 / weightp=2 / keyint=240 / keyint_min=23 / scenecut=40 / intra_refresh=0 / rc_lookahead=40 / rc=crf / mbtree=1 / crf=17.0 / qcomp=0.60 / qpmin=0 / qpmax=69 / qpstep=4 / vbv_maxrate=50000 / vbv_bufsize=62500 / crf_max=0.0 / nal_hrd=none / ip_ratio=1.40 / aq=1:0.80
Язык : English
Default : Да
Forced : Нет
Коэффициенты матрицы : BT.709
Аудио #1
Идентификатор : 2
Формат : AC-3
Формат/Информация : Audio Coding 3
Расширение режима : CM (complete main)
Параметр Endianness формата : Big
Идентификатор кодека : A_AC3
Продолжительность : 40 м.
Вид битрейта : Постоянный
Битрейт : 640 Кбит/сек
Каналы : 6 каналов
Расположение каналов : Front: L C R, Side: L R, LFE
Частота : 48,0 КГц
Битовая глубина : 16 бит
Метод сжатия : С потерями
Размер потока : 185 Мбайт (12%)
Заголовок : В. Курдов
Язык : Russian
Default : Да
Forced : Нет
Аудио #2
Идентификатор : 3
Формат : AC-3
Формат/Информация : Audio Coding 3
Расширение режима : CM (complete main)
Параметр Endianness формата : Big
Идентификатор кодека : A_AC3
Продолжительность : 40 м.
Вид битрейта : Постоянный
Битрейт : 640 Кбит/сек
Каналы : 6 каналов
Расположение каналов : Front: L C R, Side: L R, LFE
Частота : 48,0 КГц
Битовая глубина : 16 бит
Метод сжатия : С потерями
Размер потока : 185 Мбайт (12%)
Заголовок : Original
Язык : English
Default : Нет
Forced : Нет
Текст
Идентификатор : 4
Формат : UTF-8
Идентификатор кодека : S_TEXT/UTF8
Идентификатор кодека/Информация : UTF-8 Plain Text
Язык : Russian
Default : Нет
Forced : Нет
Меню
00:00:00.000 : en:
00:03:17.405 : en:
00:06:52.412 : en:
00:16:13.973 : en:
00:19:52.191 : en:
00:25:23.522 : en:
00:30:34.833 : en:
00:35:34.132 : en:
00:37:20.238 : en:
00:38:50.828 : en:

Скриншот c названием фильма

Скриншоты

Яндекс.Метрика
Рейтинг@Mail.ru