Папа в законе (2014) SATRip [1-3 серия из 4]

 

Создавать темы 29-Янв-2014 12:17

-Папа в законе (2014) SATRip- Год выпуска: 2014
Производство: Россия / Амедиа Продакшн
Жанр: Мелодрама
Перевод: Не требуется (Русский язык)
Субтитры: Отсутствуют
Режиссер: Стас Иванов
Продюсер: Александр Акопов, Наталия Шнейдерова, Татьяна Беличенко
Актеры: Александр Асташенок, Полина Филоненко, Маша Полиенко, Аркадий Коваль, Полина Толстун, Олег Андреев, Юлия Ерусова, Артем Яковлев, Владимир Матвеев, Вячеслав Коробицын
Описание фильма:
Успешный адвокат Максим Голубев по заданию своего шефа должен уладить последствия ДТП, виновником которого, по словам шефа, является важный клиент их адвокатской конторы. Максим узнает, что пострадавшая – мать его бывшей возлюбленной Кати. В больнице Максим встречает Катю и ее дочь – шестилетнюю Асю.
Дата российской премьеры: 27 января 2014

Продолжительность: ~00:44:30 (серия)
Качество видео: SATRip
Видео: DivX 5, 720x400, ~1600 kbps, 0.222 bit/pixel
Аудио: MP3 2.0, 128 kbps, 48.0 KHzВнимание! Раздача ведётся путём добавления новых серий.

Описание обновления торрента:

Внимание! Раздача ведётся путём добавления новых серий; при каждом добавлении создаётся новый торрент. Чтобы начать скачивание новой серии, пользователям необходимо сделать следующее:
1. Остановить скачивание.
2. Удалить старый торрент у себя из клиента (старые серии удалять не нужно).
3. Скачать новый торрент и запустить его у себя в клиенте вместо старого, при этом указать клиенту путь в старую папку, куда и должно происходить скачивание новых серий.
Ваш клиент при этом должен произвести хеширование (проверку) старой папки (если не производит сам - помогите ему сделать это), и будет докачивать только те серии, которых у вас ещё нет. Старые серии при этом не удаляются, а продолжают раздаваться!
Если вы уже удалили старые серии, то предотвратить повторную закачку старых серий можно, отжав галочку в соответствующих местах при запуске нового торрента. По возможности, желательно не удалять старые серии как можно дольше, чтобы релизёр смог сконцентрироваться на новых сериях, а не продолжал раздавать старые.

MediaInfo:

Формат : AVI
Формат/Информация : Audio Video Interleave
Размер файла : 555 Мбайт
Продолжительность : 44 м.
Общий поток : 1741 Кбит/сек
Программа кодирования : transcode-1.1.5
Видео
Идентификатор : 0
Формат : MPEG-4 Visual
Параметр BVOP формата : Да
Параметр QPel формата : Нет
Параметр GMC формата : Без точки перехода
Параметр матрицы формата : Default (H.263)
Идентификатор кодека : DX50
Идентификатор кодека/Подсказка : DivX 5
Продолжительность : 44 м.
Битрейт : 1600 Кбит/сек
Ширина : 720 пикселей
Высота : 400 пикселей
Соотношение сторон : 16:9
Частота кадров : 25,000 кадров/сек
Цветовое пространство : YUV
Субдискретизация насыщенности : 4:2:0
Битовая глубина : 8 бит
Тип развёртки : Прогрессивная
Метод сжатия : С потерями
Бит/(Пиксели*Кадры) : 0.222
Размер потока : 510 Мбайт (92%)
Библиотека кодирования : Intel(R) MPEG-4 encoder based on Intel(R) IPP 6.1 build 137.20[6.1.137.763]
Аудио
Идентификатор : 1
Формат : MPEG Audio
Версия формата : Version 1
Профиль формата : Layer 3
Режим : Joint stereo
Расширение режима : MS Stereo
Идентификатор кодека : 55
Идентификатор кодека/Подсказка : MP3
Продолжительность : 44 м.
Вид битрейта : Постоянный
Битрейт : 128 Кбит/сек
Каналы : 2 канала
Частота : 48,0 КГц
Метод сжатия : С потерями
Размер потока : 40,8 Мбайт (7%)
Выравнивание : Соединение по промежуткам
Продолжительность промежутка : 24 мс. (0,60 видеокадр)
Время предзагрузки промежутка : 48 мс.
Библиотека кодирования : LAME3.98.2
Скриншоты:
Яндекс.Метрика
Рейтинг@Mail.ru