Приключения на Багамских островах 3D: Таинственные пещеры и затонувшие корабли / Abenteuer Bahamas 3D: Mysteriöse Höhlen und Wracks [2012, Документальный, подводный мир, BDRip 1080p, Half OverUnder / Вертикальная анаморфная стереопара] VO + Eng

 

Создавать темы 28-Янв-2014 22:03

Приключения на Багамских островах 3D: Таинственные пещеры и затонувшие корабли / Abenteuer Bahamas 3D: Mysteriöse Höhlen und Wracks
Год выпуска: 2012
Жанр: документальный, подводный мир
Выпущено: Германия, NEW KSM
Продолжительность: 00:52:35
Перевод: Профессиональный (одноголосый закадровый)
Описание: Начались новые сьемки документально фильма «Приключения на Багамских островах» вы, вместе со сьемочной группой, будете исследовать загадочные пещеры и затонувшие корабли, погрузитесь в глубокий сон на морском дне и всё это в 3D изображении. Замечательные подводные сьёмки подарят вам незабываемое впечатление от просмотренного.
Качество: BDRip 1080p
Контейнер: mkv
Формат 3D: Half OverUnder / Вертикальная анаморфная стереопара
Видео кодек: H.264
Аудио кодек: AC3
Видео: MPEG-4 AVC, 15900 Кбит/с, 1920x1080, 23.976 кадр/с
Аудио 1: AC3, Russian, 5.1 channels, 640kbps, 48 kHz
Аудио 2: AC3, English, 5.1 channels, 640kbps, 48 kHz
Субтитры: Русские

MediaInfo

General
Unique ID : 249119920150001371646218686857189996971 (0xBB6AC05B7D677A02B5FCC84D511339AB)
Complete name : D:\Downloads\Документальные фильмы 3D\Багамы3D.2012.1080p.mkv
Format : Matroska
Format version : Version 4 / Version 2
File size : 6.44 GiB
Duration : 52mn 33s
Overall bit rate : 17.5 Mbps
Encoded date : UTC 2013-08-18 09:45:56
Writing application : mkvmerge v6.3.0 ('You can't stop me!') built on Jun 28 2013 20:09:41
Writing library : libebml v1.3.0 + libmatroska v1.4.0
Video
ID : 1
Format : AVC
Format/Info : Advanced Video Codec
Format profile : [email protected]
Format settings, CABAC : Yes
Format settings, ReFrames : 4 frames
Codec ID : V_MPEG4/ISO/AVC
Duration : 52mn 33s
Bit rate : 15.9 Mbps
Width : 1 920 pixels
Height : 1 080 pixels
Display aspect ratio : 16:9
Frame rate mode : Constant
Frame rate : 23.976 fps
Color space : YUV
Chroma subsampling : 4:2:0
Bit depth : 8 bits
Scan type : Progressive
Bits/(Pixel*Frame) : 0.320
Stream size : 5.84 GiB (91%)
Writing library : x264 core 135 r2345 f0c1c53
Encoding settings : cabac=1 / ref=4 / deblock=1:-3:-3 / analyse=0x3:0x113 / me=umh / subme=9 / psy=1 / psy_rd=1.00:0.15 / mixed_ref=1 / me_range=32 / chroma_me=1 / trellis=2 / 8x8dct=1 / cqm=0 / deadzone=21,11 / fast_pskip=1 / chroma_qp_offset=-3 / threads=6 / lookahead_threads=1 / sliced_threads=0 / nr=0 / decimate=1 / interlaced=0 / bluray_compat=0 / constrained_intra=0 / bframes=6 / b_pyramid=2 / b_adapt=2 / b_bias=0 / direct=3 / weightb=1 / open_gop=0 / weightp=2 / keyint=250 / keyint_min=23 / scenecut=40 / intra_refresh=0 / rc_lookahead=50 / rc=crf / mbtree=1 / crf=18.0 / qcomp=0.60 / qpmin=0 / qpmax=69 / qpstep=4 / vbv_maxrate=40000 / vbv_bufsize=30000 / crf_max=0.0 / nal_hrd=none / frame-packing=4 / ip_ratio=1.40 / aq=1:1.00
Language : English
Default : Yes
Forced : No
Audio #1
ID : 2
Format : AC-3
Format/Info : Audio Coding 3
Mode extension : CM (complete main)
Format settings, Endianness : Big
Codec ID : A_AC3
Duration : 52mn 33s
Bit rate mode : Constant
Bit rate : 640 Kbps
Channel(s) : 6 channels
Channel positions : Front: L C R, Side: L R, LFE
Sampling rate : 48.0 KHz
Bit depth : 16 bits
Compression mode : Lossy
Stream size : 241 MiB (4%)
Title : AC3, Russian, 5.1 channels,640kbps
Language : Russian
Default : Yes
Forced : No
Audio #2
ID : 3
Format : AC-3
Format/Info : Audio Coding 3
Mode extension : CM (complete main)
Format settings, Endianness : Big
Codec ID : A_AC3
Duration : 52mn 33s
Bit rate mode : Constant
Bit rate : 640 Kbps
Channel(s) : 6 channels
Channel positions : Front: L C R, Side: L R, LFE
Sampling rate : 48.0 KHz
Bit depth : 16 bits
Compression mode : Lossy
Stream size : 241 MiB (4%)
Title : AC3, English, 5.1 channels,640kbps
Language : English
Default : No
Forced : No
Text
ID : 4
Format : UTF-8
Codec ID : S_TEXT/UTF8
Codec ID/Info : UTF-8 Plain Text
Language : Russian
Default : Yes
Forced : No
Menu
00:00:00.000 : :1
00:07:05.300 : :2
00:12:26.788 : :3
00:18:52.214 : :4
00:24:26.215 : :5
00:33:47.484 : :6
00:41:02.627 : :7
00:48:55.474 : :8

Скриншоты

Яндекс.Метрика
Рейтинг@Mail.ru