[ Сегодня на трекере фрилич! Идет свободное скачивание без начисления Download ]

Ладога - дорога жизни (Александр Велединский) [Драма, военный, 2014] (01-04 из 04) [SATRip]

 

Создавать темы 28-Янв-2014 21:54

Ладога - дорога жизни- Информация о фильме-Оригинальное название: Ладога - дорога жизни
Год выпуска: 2014
Жанр: Драма, военный
Выпущено: Россия, Мармот-фильм
Режиссер: Александр Велединский
В ролях: Ксения Раппопорт, Алексей Серебряков, Андрей Мерзликин, Дмитрий Назаров, Юрий Кузнецов, Виталий Коваленко, Яков Шамшин, Анна Блинова, Филипп Ершов, Олег Федоров, Алексей Ведерников, Юлия Ауг
О фильме: Блокадный Ленинград. Зима 1941-го. Советская контрразведка узнает, что немцы готовят диверсию на "Дороге жизни" – единственном пути, по которому в город доставляется продовольствие и другие грузы. Скорее всего, диверсант - один из водителей "полуторок", работающих на замерзшем Ладожском озере. Найти и остановить врага должен капитан НКВД Сергиенко…-
Файл
Качество: SATRip
Видео: DivX, ~ 1800 Кбит/с, 720x400, 704х400
Аудио: MP3, 2 ch, 128 Кбит/с
Продолжительность: ~ 00:45:00 | Cерия
Язык: Русский
Семпл-

медиаинфо

Общее
Формат                                   : AVI
Формат/Информация                        : Audio Video Interleave
Размер файла                             : 632 Мбайт
Продолжительность                        : 45 м.
Общий поток                              : 1937 Кбит/сек
Библиотека кодирования                   : VirtualDub build 35491/release
Видео
Идентификатор                            : 0
Формат                                   : MPEG-4 Visual
Параметр BVOP формата                    : 1
Параметр QPel формата                    : Нет
Параметр GMC формата                     : Без точки перехода
Параметр матрицы формата                 : Default (H.263)
Режим смешивания                         : Сжатый битовый поток
Идентификатор кодека                     : DX50
Идентификатор кодека/Подсказка           : DivX 5
Продолжительность                        : 45 м.
Битрейт                                  : 1800 Кбит/сек
Ширина                                   : 720 пикселей
Высота                                   : 400 пикселей
Соотношение сторон                       : 16:9
Частота кадров                           : 25,000 кадров/сек
Цветовое пространство                    : YUV
Субдискретизация насыщенности            : 4:2:0
Битовая глубина                          : 8 бит
Тип развёртки                            : Прогрессивная
Метод сжатия                             : С потерями
Бит/(Пиксели*Кадры)                      : 0.250
Размер потока                            : 587 Мбайт (93%)
Библиотека кодирования                   : DivX 6.8.5 (UTC 2009-08-20)
Аудио
Идентификатор                            : 1
Формат                                   : MPEG Audio
Версия формата                           : Version 1
Профиль формата                          : Layer 3
Режим                                    : Joint stereo
Расширение режима                        : MS Stereo
Идентификатор кодека                     : 55
Идентификатор кодека/Подсказка           : MP3
Продолжительность                        : 45 м.
Вид битрейта                             : Постоянный
Битрейт                                  : 128 Кбит/сек
Каналы                                   : 2 канала
Частота                                  : 48,0 КГц
Метод сжатия                             : С потерями
Размер потока                            : 41,8 Мбайт (7%)
Выравнивание                             : Разделение по промежуткам
Продолжительность промежутка             : 40  мс. (1,00 видеокадр)
Время предзагрузки промежутка            : 500  мс.
-Скриншоты:
Яндекс.Метрика
Рейтинг@Mail.ru