Марш к Победе. Дорога на Токио / March To Victory. Road to Tokyo (Эдвард Фойерхерд) (14 серий из 14) [2007, документальный, война, история, IPTVRip] VO

 

Создавать темы 28-Янв-2014 17:36

--Марш к Победе. Дорога на Токио / March To Victory. Road to Tokyo-- Год выпуска: 2007
Страна: США
Производство: Creation Films Documentaries
Жанр: Документальный, война, история
Продолжительность: 14 х ~00:44:10
Перевод: Профессиональный (одноголосый закадровый)-Режиссер: Эдвард Фойерхерд-Описание: Документальный сериал о войне на Тихом океане между 1941 и 1945 годами. Этот театр боевых действий охватывал площадь в десятки тысяч миль. Захватывая остров за островом, ведя бои в густых джунглях и на голых вулканических островах, в результате упорных ожесточенных воздушно-морских сражений, союзники приближались к границам Японии. В сериале присутствуют редкие кадры кинохроники и интервью участников событий. Цикл фильмов «Марш к Победе» состоит из трех сериалов: «Дорога на Рим», «Дорога на Токио» и «Дорога на Берлин».-- --Качество видео: IPTVRip
Формат видео: AVI
Видео кодек: DivX
Аудио кодек: МР3
Видео: 704x528 (1.33:1), 25.000 fps, DivX MPEG-4, ~1805 kbps avg, 0.194 bit/pixel
Аудио: 48.0 kHz, MPEG Audio Layer 3, 2 ch, ~128.00 kbps avg
Субтитры: нет--

Список выпусков/серий

01. Восходящее солнце / Rising Sun
02. Перл-Харбор / Pearl Harbor
03. Черные дни/ Dark Days
04. Гуадалканал и Соломоновы острова / Guadalcanal & the Solomons
05. Новая Гвинея / New Guinea
06. Тарава / Tarawa
07. Кваджалейн / Kwajalein
08. Бирма / Burma
09. Сайпан и Тиниан / Saipan & Tinian
10. Остров Пелелиу / Peleliu
11. Лусон / Luzon
12. Иводзима / Iwo Jima
13. Окинава / Okinawa
14. Дополнительные материалы / Bonus Material.

Media Info

Марш к победе. Дорога на Токио\Doroga.na.Tokio.(14.serij.iz.14).2007.IPTVRip.alf62.&.awas99\Doroga.na.Tokio.(01.serija.iz.14).Voshodjashhee.solnce.2007.IPTVRip.alf62.&.awas99.avi
Format : AVI
Format/Info : Audio Video Interleave
File size : 626 MiB
Duration : 45mn 1s
Overall bit rate : 1 943 Kbps
Writing library : Boilsoft Joiner build 2411/release
Video
ID : 0
Format : MPEG-4 Visual
Format profile : Advanced [email protected]
Format settings, BVOP : 2
Format settings, QPel : No
Format settings, GMC : No warppoints
Format settings, Matrix : Default (MPEG)
Codec ID : DX50
Codec ID/Hint : DivX 5
Duration : 45mn 1s
Bit rate : 1 805 Kbps
Width : 704 pixels
Height : 528 pixels
Display aspect ratio : 4:3
Frame rate : 25.000 fps
Color space : YUV
Chroma subsampling : 4:2:0
Bit depth : 8 bits
Scan type : Progressive
Compression mode : Lossy
Bits/(Pixel*Frame) : 0.194
Stream size : 581 MiB (93%)
Writing library : XviD 73
Audio
ID : 1
Format : MPEG Audio
Format version : Version 1
Format profile : Layer 3
Codec ID : 55
Codec ID/Hint : MP3
Duration : 45mn 1s
Bit rate mode : Constant
Bit rate : 128 Kbps
Channel count : 2 channels
Sampling rate : 48.0 KHz
Compression mode : Lossy
Stream size : 41.2 MiB (7%)
Alignment : Aligned on interleaves
Interleave, duration : 40 ms (1.00 video frame)
Interleave, preload duration : 480 ms
Writing library : LAME3.99r
Encoding settings : -m s -V 4 -q 2 -lowpass 17 -b 128

Скриншоты

-- --
Яндекс.Метрика
Рейтинг@Mail.ru