Голодные игры: И вспыхнет пламя / The Hunger Games: Catching Fire (Френсис Лоуренс / Francis Lawrence) [2013 г., фантастика, боевик, триллер, приключения, HDRip] Dub [Звук с ТS]

 

Создавать темы 22-Янв-2014 02:14

-Голодные игры: И вспыхнет пламя
The Hunger Games: Catching Fire

«Помни, кто твой настоящий враг»
- -Производство: США
Год выпуска: 2013 г.
Жанр: фантастика, боевик, триллер, приключения
Продолжительность: 02:26:14-Мировая премьера: 11 ноября 2013
Российская премьера: 21 ноября 2013, «Вольга»-Перевод: Профессиональный (полное дублирование) [Звук с ТS]-Режиссер: Френсис Лоуренс / Francis Lawrence-В ролях: Дженнифер Лоуренс, Джош Хатчерсон, Сэм Клафлин, Джена Мэлоун, Вуди Харрельсон, Элизабет Бэнкс, Лиам Хемсворт, Дональд Сазерленд, Филип Сеймур Хоффман, Стэнли Туччи-Описание:
Сумев выжить на безжалостных Голодных играх, Китнисс Эвердин и Пит Мелларк возвращаются домой. Но теперь они в еще большей опасности, так как своим отказом играть по правилам на Арене бросили вызов Капитолию. По традиции следующие, юбилейные, Голодные игры должны стать особенными, и в этот раз в них участвуют только победители прошлых лет. Китнисс и Пит вынуждены вновь выйти на Арену, где будут соперничать с сильнейшими. Правила игры меняются. Арена еще опасней, масштаб еще больше, ставки еще выше!-Качество видео: HDRip [Рип с BDRip 720p]
Контейнер: AVI
Видео кодек: XviD
Аудио кодек: MP3
Видео: MPEG-4 Visual at 1199 Кбит/сек: 720 x 400 (1.800) at 23.976 fps, 0.17 bit/pixel
Аудио: MPEG Audio at 128 Кбит/сек: 2 канала, 44,1 КГц
Cубтитры: Отсутствуют
-

Media Info

Общее
Полное имя                               : E:\uTorDown\uTorrent\Films\The.Hunger.Games.Catching.Fire.2013.Dt.HDRip.1400MB_[pirat.ca].avi
Формат                                   : AVI
Формат/Информация                        : Audio Video Interleave
Размер файла                             : 1,37 Гбайт
Продолжительность                        : 2 ч. 26 м.
Общий поток                              : 1336 Кбит/сек
Программа кодирования                    : VirtualDubMod 1.5.10.3 | www.virtualdub-fr.org || (build 2550/release)
Библиотека кодирования                   : VirtualDubMod build 2550/release
Видео
Идентификатор                            : 0
Формат                                   : MPEG-4 Visual
Профиль формата                          : Advanced [email protected]
Параметр BVOP формата                    : 2
Параметр QPel формата                    : Нет
Параметр GMC формата                     : Без точки перехода
Параметр матрицы формата                 : Выборочная
Идентификатор кодека                     : XVID
Идентификатор кодека/Подсказка           : XviD
Продолжительность                        : 2 ч. 26 м.
Битрейт                                  : 1199 Кбит/сек
Ширина                                   : 720 пикселей
Высота                                   : 400 пикселей
Соотношение сторон                       : 16:9
Частота кадров                           : 23,976 кадра/сек
Цветовое пространство                    : YUV
Субдискретизация насыщенности            : 4:2:0
Битовая глубина                          : 8 бит
Тип развёртки                            : Прогрессивная
Метод сжатия                             : С потерями
Бит/(Пиксели*Кадры)                      : 0.174
Размер потока                            : 1,22 Гбайт (90%)
Библиотека кодирования                   : XviD 1.2.1 (UTC 2008-12-04)
Аудио
Идентификатор                            : 1
Формат                                   : MPEG Audio
Версия формата                           : Version 1
Профиль формата                          : Layer 3
Идентификатор кодека                     : 55
Идентификатор кодека/Подсказка           : MP3
Продолжительность                        : 2 ч. 26 м.
Вид битрейта                             : Постоянный
Битрейт                                  : 128 Кбит/сек
Каналы                                   : 2 канала
Частота                                  : 44,1 КГц
Метод сжатия                             : С потерями
Размер потока                            : 134 Мбайт (10%)
Выравнивание                             : Разделение по промежуткам
Продолжительность промежутка             : 42  мс. (1,00 видеокадр)
Время предзагрузки промежутка            : 500  мс.

Скриншот с названием фильма

Скриншоты

Яндекс.Метрика
Рейтинг@Mail.ru