[ Сегодня на трекере фрилич! Идет свободное скачивание без начисления Download ]

Петля времени (2014) HDTVRip [ серии 1-4 из 4]

 

Создавать темы 17-Янв-2014 23:58

-Петля времени (2014) HDTVRip [серии 1-4 из 4] - Год выпуска: 2014
Жанр: Детектив, Мистика
Выпущено: Россия, "Всемирные российские студии"
Перевод: Не требуется
Субтитры: Отсутствуют
Дата российской премьеры: 13 января 2014
Режиссер: Юрий Ильин
Актеры: Илья Оболонков, Елизавета Пащенко, Андрей Вальц, Эльмира Мирэль, Владимир Никитин, Степан Старчиков, Александр Клюквин, Сергей Астахов, Алиса Сапегина, Антонина Дивина, Дарья Егорова, Антонина Комиссарова
Описание фильма:
Психология каждого отдельно взятого человека – вещь удивительно тонкая, непредсказуемая, и никто не может сделать прогноз на тему того, как психика ответит на то или иное событие, тем более, когда дело касается перемещения во времени. Отечественный кинематограф делает уверенные шаги в освоении этой интересной сферы. Авторы предлагают четыре эпизода истории, в которой густо намешаны мистика и детектив, и усилено все это большим количеством невероятных интриг.Все начинается в наше время. На дворе 2013-й год. Столичные сыщики выезжают в район старинного особняка. Эксперт-криминалист Екатерина Лужина и оперуполномоченный Антон Ермолаев еще не знают, что дело, связанное с убийством, совершенном во времена другой эпохи, необъяснимым способом перенесет их в ту самую эпоху. Детективы оказываются в другом мире, другом тысячелетии, которое диктует свои законы.Атмосферу девятнадцатого века нельзя назвать дружелюбной. Местная полиция считает делом чести разобраться с появлением странных «чужаков», а также пытается воспользоваться редкой возможностью и навешивает на «гостей» самые жуткие преступления. Герои невольно вовлечены в сложнейшую для осознания ситуацию. Но желание вернуться назад сильнее. Надо любой ценой выжить, найти настоящих преступников. Главное – не потерять себя.
Продолжительность: 1 x ~ 00:45:00
Качество видео: HDTVRip
Видеокодек: Xvid
Битрейт видео: ~1896 kbps
Размер кадра: 720x400
Аудиокодек: AC3 2.0
Битрейт аудио: 192 kbps

Mediainfo

Общее
Полное имя : H:\Petlja.vremeni\Petlja.vremeni.01.HDTVRip.avi
Формат : AVI
Формат/Информация : Audio Video Interleave
Размер файла : 667 Мбайт
Продолжительность : 44 м.
Общий поток : 2097 Кбит/сек
Библиотека кодирования : VirtualDub build 32507/release
Видео
Идентификатор : 0
Формат : MPEG-4 Visual
Профиль формата : Advanced [email protected]
Параметр BVOP формата : 2
Параметр QPel формата : Нет
Параметр GMC формата : Без точки перехода
Параметр матрицы формата : Default (H.263)
Режим смешивания : Сжатый битовый поток
Идентификатор кодека : XVID
Идентификатор кодека/Подсказка : XviD
Продолжительность : 44 м.
Битрейт : 1896 Кбит/сек
Ширина : 720 пикселей
Высота : 400 пикселей
Соотношение сторон : 16:9
Частота кадров : 25,000 кадров/сек
Цветовое пространство : YUV
Субдискретизация насыщенности : 4:2:0
Битовая глубина : 8 бит
Тип развёртки : Прогрессивная
Метод сжатия : С потерями
Бит/(Пиксели*Кадры) : 0.263
Размер потока : 603 Мбайт (90%)
Библиотека кодирования : XviD 1.1.2 (UTC 2006-11-01)
Аудио
Идентификатор : 1
Формат : AC-3
Формат/Информация : Audio Coding 3
Расширение режима : CM (complete main)
Параметр Endianness формата : Big
Идентификатор кодека : 2000
Продолжительность : 44 м.
Вид битрейта : Постоянный
Битрейт : 192 Кбит/сек
Каналы : 2 канала
Расположение каналов : Front: L R
Частота : 48,0 КГц
Битовая глубина : 16 бит
Метод сжатия : С потерями
Размер потока : 61,1 Мбайт (9%)
Выравнивание : Соединение по промежуткам
Продолжительность промежутка : 40 мс. (1,00 видеокадр)
Время предзагрузки промежутка : 512 мс.
Скриншоты:
Яндекс.Метрика
Рейтинг@Mail.ru