[ Сегодня на трекере фрилич! Идет свободное скачивание без начисления Download ]

Любовь не картошка (2013) HDTVRip (серии 1-8 из 8)

 

Создавать темы 17-Янв-2014 22:49

-Любовь не картошка (2013) HDTVRip (серии 1-8 из 8)- Русское название: Любовь не картошка
Производство: "Всемирные Русские Студии", Россия
Год выпуска: 2013
Жанр: Мелодрама, Комедия
Режиссер: Валерий Усков
Актеры: Валентина Теличкина, Таисия Вилкова, Марина Яковлева, Александр Вдовин, Ася Дубровская, Александр Михайлов, Виктор Хориняк, Павел Мисаилов, Дмитрий Подадаев
Описание фильма:
Паня всю жизнь прожила в деревне. Муж умер, детей не было. Из родственников только племянник: живет в городе с семьей и уговаривает Паню к ним перебраться. Все для того, чтобы дом Пани продать, а на вырученные деньги купить машину. Устала Паня отбиваться и в шутку брякнула: «Не могу переехать, замуж выхожу». Теперь нужно Пане настоящего жениха найти, иначе не отстанет племянничек. Подходящих мужчин в округе нет. Подруга Пани, соседка Лизка, сватает Паню за дачника-художника, который недавно переехал в деревню. Паня решила предложить ему брак по расчету — два мешка картошки, если женится. А у Лизки у самой дочь на выданье, Татьяна. Та и вовсе мимо деревенских женихов смотрит — олигарха ждет на белом мерседесе. И вся деревня гадает — сможет ли Лизка выдать замуж и Паню, и Таню?
Деревня, где проходят съемки телефильма, и правда заслуживает, чтобы прожить в ней всю жизнь. Утешево — одна из 30 деревень, которые осмотрели создатели фильма, прежде чем выбрать место для съемок. Она самая красивая, как говорит художник-постановщик, дома настоящие, не испорченные «сайдингом», дачников нет, церковь на холме… Местные жители утверждают — хорошее место, сильное, кто-то ангелов здесь видел, а кто-то рассказывает, что и яблоки тут вверх падают, потому что притяжение неба здесь особенное: не даром Циолковский в Калуге космос изучал. И все тучи Утешево обходят стороной, дожди в Калуге проливаются, что для съемочного процесса очень важно.

Дата российской премьеры: 23.12.2013
Продолжительность: 8 x ~ 00:44:00
Качество: HDTVRip
Формат: AVI
Видео кодек: XviD
Аудио кодек: AC3
Видео: 720x400 (1.80:1), 25 fps, XviD build 50 ~1552 kbps avg, 0.22 bit/pixel
Аудио: 48 kHz, AC3 Dolby Digital, 2/0 (L,R) ch, ~192.00 kbps avg

MediaInfo:

[code]General
Complete name : E:\раздачи\Lyubov.ne.kartoshka.2013.XviD.HDTVRip.RG.Russkie.serialy.&.Files-x\Lyubov.ne.kartoshka.01.seriya.2014.XviD.HDTVRip.RG.Russkie.serialy.&.Files-x.avi
Format : AVI
Format/Info : Audio Video Interleave
File size : 550 MiB
Duration : 43mn 51s
Overall bit rate : 1 754 Kbps
Writing application : VirtualDubMod 1.5.10.3 | www.virtualdub-fr.org || (build 2550/release)
Writing library : VirtualDubMod build 2550/release
Video
ID : 0
Format : MPEG-4 Visual
Format profile : Advanced [email protected]
Format settings, BVOP : Yes
Format settings, QPel : No
Format settings, GMC : No warppoints
Format settings, Matrix : Default (H.263)
Codec ID : XVID
Codec ID/Hint : XviD
Duration : 43mn 51s
Bit rate : 1 552 Kbps
Width : 720 pixels
Height : 400 pixels
Display aspect ratio : 16:9
Frame rate : 25.000 fps
Color space : YUV
Chroma subsampling : 4:2:0
Bit depth : 8 bits
Scan type : Progressive
Compression mode : Lossy
Bits/(Pixel*Frame) : 0.216
Stream size : 487 MiB (88%)
Writing library : XviD 1.2.1 (UTC 2008-12-04)
Audio
ID : 1
Format : AC-3
Format/Info : Audio Coding 3
Mode extension : CM (complete main)
Format settings, Endianness : Big
Codec ID : 2000
Duration : 43mn 51s
Bit rate mode : Constant
Bit rate : 192 Kbps
Channel count : 2 channels
Channel positions : Front: L R
Sampling rate : 48.0 KHz
Bit depth : 16 bits
Compression mode : Lossy
Stream size : 60.2 MiB (11%)
Alignment : Split accross interleaves
Interleave, duration : 40 ms (1.00 video frame)
Interleave, preload duration : 500 ms
Скриншоты:
Яндекс.Метрика
Рейтинг@Mail.ru