Ничего себе поездочка / Joy Ride (Джон Дал / John Dahl) [2001 г., триллер, драма, детектив, BDRip] Dub

 

Создавать темы 16-Янв-2014 02:26

-Ничего себе поездочка / Joy Ride-«Don't play with strangers»- Производство: США
Год выпуска: 2001 г.
Жанр: триллер, драма, детектив
Продолжительность: 01:37:07
Мировая премьера: 9 сентября 2001
Российская премьера: 31 октября 2001
Дата выхода DVD: 18 марта 2010
Перевод: Профессиональный (полное дублирование)
Режиссер: Джон Дал / John Dahl-В ролях: Стив Зан, Пол Уокер, Лили Собески, Джессика Боуман, Стюарт Стоун, Бейзил Уоллес, Брайан Лекнер, Мэри Уиклифф, МакКензи Саттертвейт, Делл Йонт-Описание: Темная, пустынная лента шоссе змеей протянулась по безлюдному ландшафту средней Америки. Эта дорога живет своей жизнью, по своим правилам и законам, и если ты осмелился совершить по ней путешествие, то неплохо бы эти законы выучить наизусть.
Герои фильма попадают в жуткую переделку, когда Фулер уговаривает младшего брата Льюиса установить в машине старый радиопередатчик.
Для него это лишь «клевая» антикварная диковинка, с помощью которой можно позволить себе небольшой розыгрыш. Теперь ребятам придется своей кровью расплачиваться за поступок, на который способен каждый из нас…-
Качество видео: BDRip
Контейнер: AVI
Видео кодек: XviD
Аудио кодек: AC3
Видео: 720x304 (2.37:1), 23.976 fps, XviD build 65 ~1747 kbps avg, 0.33 bit/pixel
Аудио: 48 kHz, AC3 Dolby Digital, 3/2 (L,C,R,l,r) + LFE ch, ~384 kbps avg

Media Info

General
Complete name : ...\Nichego.sebe.poezdochka.2001.BDRip_[pirat.ca].avi
Format : AVI
Format/Info : Audio Video Interleave
File size : 1.45 GiB
Duration : 1h 37mn
Overall bit rate : 2 140 Kbps
Movie name : Ничего себе поездочка / Joy Ride (2001) BDRip
Genre : триллер, драма, детектив
Writing application : VirtualDubMod 1.5.10.2 (build 2540/release)
Copyright : http://hqclub.net/
Comment : 17.12.2013
Video
ID : 0
Format : MPEG-4 Visual
Format profile : Advanced [email protected]
Format settings, BVOP : 1
Format settings, QPel : No
Format settings, GMC : No warppoints
Format settings, Matrix : Custom
Codec ID : XVID
Codec ID/Hint : XviD
Duration : 1h 37mn
Bit rate : 1 747 Kbps
Width : 720 pixels
Height : 304 pixels
Display aspect ratio : 2.35:1
Frame rate : 23.976 fps
Color space : YUV
Chroma subsampling : 4:2:0
Bit depth : 8 bits
Scan type : Progressive
Compression mode : Lossy
Bits/(Pixel*Frame) : 0.333
Stream size : 1.19 GiB (82%)
Writing library : XviD 65
Audio
ID : 1
Format : AC-3
Format/Info : Audio Coding 3
Mode extension : CM (complete main)
Format settings, Endianness : Big
Codec ID : 2000
Duration : 1h 37mn
Bit rate mode : Constant
Bit rate : 384 Kbps
Channel count : 6 channels
Channel positions : Front: L C R, Side: L R, LFE
Sampling rate : 48.0 KHz
Bit depth : 16 bits
Compression mode : Lossy
Stream size : 267 MiB (18%)
Alignment : Split accross interleaves
Interleave, duration : 42 ms (1.00 video frame)
Interleave, preload duration : 500 ms

Скриншоты

-
Яндекс.Метрика
Рейтинг@Mail.ru