[ Сегодня на трекере фрилич! Идет свободное скачивание без начисления Download ]

Самый главный босс / Direktoren for det hele / The Boss of It All (Ларс фон Триер / Lars von Trier) [2006, Комедия, DVDRip]

 

Создавать темы 12-Фев-2017 10:11

- Самый главный босс / Direktøren for det hele / The Boss of It All - Производство: Дания, Швеция, Франция, Италия, Германия, Исландия, Zentropa Productions, Memfis Film, Slot Machine
Жанр: Комедия
Режиссер: Ларс фон Триер
Актеры: Йенс Альбинус, Петер Ганцлер, Фридрик Тоур Фридрикссон, Бенедикт Эрлингссон, Ибен Хьейле, Хенрик Прип, Миа Лине, Каспер Кристенсен, Луиза Мириц, Жан-Марк Барр
Описание:
Владелец IT-компании хочет продать бизнес. Есть только одна проблема: когда-то он придумал фиктивного руководителя, чтобы не быть ответственным за непопулярные решения.
Покупатели настаивают на личной встрече, и владельцу приходится нанять актера-неудачника, который мог бы исполнить роль босса. К своему удивлению актер обнаруживает, что новая роль рискует стать серьезным испытанием для его моральных убеждений.


Продолжительность: 01:39:55
Качество видео: DVDRip http://sendfile.su/1308058
Перевод: Многоголосый закадровый
Язык субтитров: Русский, Английский
Вид субтитров: Вшитые, отключаемые (VobSub)
Видео: AVC/H.264, [email protected], ~3500 kbps
Аудио #1: AC3, 2 ch, 192 kbps | Русский
Аудио #2: AC3, 2 ch, 192 kbps | Датский

МИ

General
Unique ID                      : 80021289553683312172701966832917107945 (0x3C338A2EA0DAF4EB8E24F0CB455154E9)
Complete name                  : D:\Direktøren for det hele (2006).mkv
Format                         : Matroska
Format version                 : Version 2
File size                      : 2.71 GiB
Duration                       : 1h 39mn
Overall bit rate               : 3 877 Kbps
Encoded date                   : UTC 2017-02-11T19:42:17Z
Writing application            : HandBrake 0.10.5 2016021100
Writing library                : Lavf55.12.0
Video
ID                             : 1
Format                         : AVC
Format/Info                    : Advanced Video Codec
Format profile                 : [url=mailto:[email protected]][email protected][/url]
Format settings, CABAC         : Yes
Format settings, ReFrames      : 4 frames
Codec ID                       : V_MPEG4/ISO/AVC
Bit rate                       : 3 500 Kbps
Width                          : 720 pixels
Height                         : 466 pixels
Display aspect ratio           : 1.85:1
Original display aspect ratio  : 1.85:1
Frame rate mode                : Variable
Color space                    : YUV
Chroma subsampling             : 4:2:0
Bit depth                      : 8 bits
Scan type                      : Progressive
Writing library                : x264 core 142 r2479 dd79a61
Encoding settings              : cabac=1 / ref=1 / deblock=1:0:0 / analyse=0x3:0x113 / me=hex / subme=2 / psy=1 / psy_rd=1.00:0.00 / mixed_ref=0 / me_range=16 / chroma_me=1 / trellis=0 / 8x8dct=1 / cqm=0 / deadzone=21,11 / fast_pskip=1 / chroma_qp_offset=0 / threads=12 / lookahead_threads=3 / sliced_threads=0 / nr=0 / decimate=1 / interlaced=0 / bluray_compat=0 / constrained_intra=0 / bframes=3 / b_pyramid=2 / b_adapt=1 / b_bias=0 / direct=1 / weightb=1 / open_gop=0 / weightp=1 / keyint=240 / keyint_min=24 / scenecut=40 / intra_refresh=0 / rc_lookahead=10 / rc=abr / mbtree=1 / bitrate=3500 / ratetol=1.0 / qcomp=0.60 / qpmin=0 / qpmax=69 / qpstep=4 / vbv_maxrate=62500 / vbv_bufsize=78125 / nal_hrd=none / filler=0 / ip_ratio=1.40 / aq=1:1.00
Default                        : Yes
Forced                         : No
Color range                    : Limited
Color primaries                : BT.601 NTSC
Transfer characteristics       : BT.709
Matrix coefficients            : BT.601
Audio #1
ID                             : 2
Format                         : AC-3
Format/Info                    : Audio Coding 3
Mode extension                 : CM (complete main)
Format settings, Endianness    : Big
Codec ID                       : A_AC3
Duration                       : 1h 39mn
Bit rate mode                  : Constant
Bit rate                       : 192 Kbps
Channel(s)                     : 2 channels
Channel positions              : Front: L R
Sampling rate                  : 48.0 KHz
Compression mode               : Lossy
Delay relative to video        : 27ms
Stream size                    : 137 MiB (5%)
Title                          : Stereo
Language                       : Russian
Default                        : Yes
Forced                         : No
Audio #2
ID                             : 3
Format                         : AC-3
Format/Info                    : Audio Coding 3
Mode extension                 : CM (complete main)
Format settings, Endianness    : Big
Codec ID                       : A_AC3
Duration                       : 1h 39mn
Bit rate mode                  : Constant
Bit rate                       : 192 Kbps
Channel(s)                     : 2 channels
Channel positions              : Front: L R
Sampling rate                  : 48.0 KHz
Compression mode               : Lossy
Delay relative to video        : 27ms
Stream size                    : 137 MiB (5%)
Title                          : Stereo
Language                       : Danish
Default                        : No
Forced                         : No
Text #1
ID                             : 4
Format                         : VobSub
Codec ID                       : S_VOBSUB
Codec ID/Info                  : Picture based subtitle format used on DVDs
Language                       : Russian
Default                        : No
Forced                         : No
Text #2
ID                             : 5
Format                         : VobSub
Codec ID                       : S_VOBSUB
Codec ID/Info                  : Picture based subtitle format used on DVDs
Language                       : English
Default                        : No
Forced                         : No
Menu
00:00:00.000                   : :Chapter 1
00:04:56.379                   : :Chapter 2
00:10:08.224                   : :Chapter 3
00:17:31.834                   : :Chapter 4
00:19:51.473                   : :Chapter 5
00:27:10.245                   : :Chapter 6
00:32:45.747                   : :Chapter 7
00:36:11.919                   : :Chapter 8
00:40:36.550                   : :Chapter 9
00:46:05.045                   : :Chapter 10
00:52:18.418                   : :Chapter 11
00:58:15.275                   : :Chapter 12
01:05:33.513                   : :Chapter 13
01:09:18.104                   : :Chapter 14
01:14:51.270                   : :Chapter 15
01:20:01.246                   : :Chapter 16
01:22:42.073                   : :Chapter 17
01:27:51.015                   : :Chapter 18
01:37:17.281                   : :Chapter 19
01:39:06.390                   : :Chapter 20
Скриншоты:
Яндекс.Метрика
Рейтинг@Mail.ru