Ю-571 / U-571 (Джонатан Мостоу) [2000 / Боевик, триллер, драма, военный / BDRip 720p от 0ptimus | D, A | Open Matte]

 

Создавать темы 11-Янв-2014 13:19

Информация о фильме
Название: Ю-571
Оригинальное название: U-571
Год выхода: 2000
Жанр: Боевик, триллер, драма, военный
Режиссер: Джонатан Мостоу
В ролях: Мэттью МакКонахи, Билл Пэкстон, Харви Кейтель, Джон Бон Джови, Дэвид Кит, Томас Кречманн, Джейк Уэбер, Джек Ноузуорти, Том Гайри, Уилл Эстес, Терренс «Т.К.» Карсон, Эрик Палладино, Дэйв Пауэр, Дерк Читвуд, Мэттью Сеттл, Ребекка Тилни, Каролина Де Лаурентиис, Дина Де Лаурентиис, Бернелл Такер, Роб Эллин, Карстен Войт, Гюнтер Вургер, Оливер Стоковски, Арнд Клауиттер, Кай Морер, Роберт Лахода, Питер Старк, Эрих Редман, Уильям Джон Эванс, Робин Эсквив, Джаспер Вуд, Мартин Глейд, Оливер Остас, Корпорал Джон Уильям Фалконер, Корпорал Кори Глен Мэтьюз, Валентина Ардеатини
О фильме:
1942 год. Немецкие подводные лодки хозяйничают в Атлантике. Радиоперехваты не дают союзникам ничего: сообщения противника не поддаются расшифровке. И тогда американские моряки получают секретное задание: захватить вражескую субмарину U-571 и находящуюся на ее борту шифровальную машину «Энигма». Захватить… и вернуться обратно!

Страна: Франция, США
Студия: Canal Plus Image International, Dino De Laurentiis Productions, Universal Pictures
Продолжительность: 01:55:59
Перевод: Дублированный, авторский (одноголосый закадровый)
Файл
Кодек: h.264
Качество: BDRip 720p
Видео: 6764 Кбит/с, 1280x720, 24.000 кадр/с
Звук:
• №1: Русский (АС3, 6 ch, 384 Кбит/с) Дублированный
• №2: Русский (АС3, 6 ch, 640 Кбит/с) Авторский одноголосый [Сергей Визгунов]
• №3: Английский (АС3, 6 ch, 640 Кбит/с)
Отдельно:
Русский (DTS, 6 ch, 1536 Кбит/с) Авторский одноголосый [Сергей Визгунов]
Английский (DTS, 6 ch, 1536 Кбит/с)
Субтитры: Русские

MediaInfo

------------------------------------------------------------------------
x264 [info]: frame I:1075 Avg QP:15.74 size:116773
x264 [info]: frame P:35789 Avg QP:18.13 size: 60726
x264 [info]: frame B:130173 Avg QP:19.85 size: 27505
------------------------------------------------------------------------
Полное имя : U-571.-Open.Matte-.2000.x264.BDRip.720p.0ptimus.mkv
Формат : Matroska
Версия формата : Version 4 / Version 2
Размер файла : 6,83 Гбайт
Продолжительность : 1 ч. 55 м.
Общий поток : 8424 Кбит/сек
Название фильма : Ю-571 | U-571 [2000] Open Matte -=BDRip (720p) by 0ptimus=-
Дата кодирования : UTC 2014-01-10 07:34:44
Программа кодирования : mkvmerge v6.6.0 ('The Edge Of The In Between') built on Dec 1 2013 17:55:00
Библиотека кодирования : libebml v1.3.0 + libmatroska v1.4.1
Видео
Идентификатор : 1
Формат : AVC
Формат/Информация : Advanced Video Codec
Профиль формата : [email protected]
Параметр CABAC формата : Да
Параметр ReFrames формата : 8 кадров
Идентификатор кодека : V_MPEG4/ISO/AVC
Продолжительность : 1 ч. 55 м.
Битрейт : 6764 Кбит/сек
Ширина : 1280 пикселей
Высота : 720 пикселей
Соотношение сторон : 16:9
Режим частоты кадров : Постоянный
Частота кадров : 24,000 кадра/сек
Цветовое пространство : YUV
Субдискретизация насыщенности : 4:2:0
Битовая глубина : 8 бит
Тип развёртки : Прогрессивная
Бит/(Пиксели*Кадры) : 0.306
Размер потока : 5,34 Гбайт (78%)
Заголовок : Rip by 0ptimus
Библиотека кодирования : x264 core 133 r2334 a3ac64b
Настройки программы : cabac=1 / ref=8 / deblock=1:-3:-3 / analyse=0x3:0x113 / me=umh / subme=10 / psy=1 / psy_rd=1.00:0.20 / mixed_ref=1 / me_range=32 / chroma_me=1 / trellis=2 / 8x8dct=1 / cqm=0 / deadzone=21,11 / fast_pskip=0 / chroma_qp_offset=-3 / threads=3 / lookahead_threads=1 / sliced_threads=0 / nr=0 / decimate=0 / interlaced=0 / bluray_compat=0 / constrained_intra=0 / bframes=11 / b_pyramid=2 / b_adapt=2 / b_bias=0 / direct=3 / weightb=1 / open_gop=0 / weightp=2 / keyint=240 / keyint_min=24 / scenecut=40 / intra_refresh=0 / rc_lookahead=40 / rc=2pass / mbtree=0 / bitrate=6764 / ratetol=1.0 / qcomp=0.60 / qpmin=0 / qpmax=69 / qpstep=4 / cplxblur=20.0 / qblur=0.5 / vbv_maxrate=50000 / vbv_bufsize=50000 / nal_hrd=none / ip_ratio=1.40 / pb_ratio=1.30 / aq=1:1.00
Язык : English
Default : Да
Forced : Да
Аудио #1
Идентификатор : 2
Формат : AC-3
Формат/Информация : Audio Coding 3
Расширение режима : CM (complete main)
Параметр Endianness формата : Big
Идентификатор кодека : A_AC3
Продолжительность : 1 ч. 55 м.
Вид битрейта : Постоянный
Битрейт : 384 Кбит/сек
Каналы : 6 каналов
Расположение каналов : Front: L C R, Side: L R, LFE
Частота : 48,0 КГц
Битовая глубина : 16 бит
Метод сжатия : С потерями
Размер потока : 319 Мбайт (5%)
Заголовок : Дублированный AC3 5.1 @ 384 kbps
Язык : Russian
Default : Да
Forced : Да
Аудио #2
Идентификатор : 3
Формат : AC-3
Формат/Информация : Audio Coding 3
Расширение режима : CM (complete main)
Параметр Endianness формата : Big
Идентификатор кодека : A_AC3
Продолжительность : 1 ч. 55 м.
Вид битрейта : Постоянный
Битрейт : 640 Кбит/сек
Каналы : 6 каналов
Расположение каналов : Front: L C R, Side: L R, LFE
Частота : 48,0 КГц
Битовая глубина : 16 бит
Метод сжатия : С потерями
Размер потока : 531 Мбайт (8%)
Заголовок : Авторский [Сергей Визгунов] AC3 5.1 @ 640 kbps
Язык : Russian
Default : Нет
Forced : Нет
Аудио #3
Идентификатор : 4
Формат : AC-3
Формат/Информация : Audio Coding 3
Расширение режима : CM (complete main)
Параметр Endianness формата : Big
Идентификатор кодека : A_AC3
Продолжительность : 1 ч. 55 м.
Вид битрейта : Постоянный
Битрейт : 640 Кбит/сек
Каналы : 6 каналов
Расположение каналов : Front: L C R, Side: L R, LFE
Частота : 48,0 КГц
Битовая глубина : 16 бит
Метод сжатия : С потерями
Размер потока : 531 Мбайт (8%)
Заголовок : AC3 5.1 @ 640 kbps
Язык : English
Default : Нет
Forced : Нет
Текст
Идентификатор : 5
Формат : UTF-8
Идентификатор кодека : S_TEXT/UTF8
Идентификатор кодека/Информация : UTF-8 Plain Text
Язык : Russian
Default : Нет
Forced : Нет
Меню
00:00:00.000 : ru:Chapter 01 (00:00:00)
00:08:42.708 : ru:Chapter 02 (00:08:42)
00:20:55.750 : ru:Chapter 03 (00:20:55)
00:32:20.916 : ru:Chapter 04 (00:32:20)
00:41:19.875 : ru:Chapter 05 (00:41:19)
00:50:21.041 : ru:Chapter 06 (00:50:21)
00:58:55.833 : ru:Chapter 07 (00:58:55)
01:07:05.000 : ru:Chapter 08 (01:07:05)
01:16:46.541 : ru:Chapter 09 (01:16:46)
01:27:20.125 : ru:Chapter 10 (01:27:20)
01:37:19.458 : ru:Chapter 11 (01:37:19)
01:49:31.000 : ru:Chapter 12 (01:49:31)

Скриншоты

Яндекс.Метрика
Рейтинг@Mail.ru