[ Сегодня на трекере фрилич! Идет свободное скачивание без начисления Download ]

Воин / Warrior (Гэвин О’Коннор) [2011 / Драма, спорт / BDRip 1080p]

 

Создавать темы 11-Янв-2014 13:08

Информация о фильме
Название: Воин
Оригинальное название: Warrior
Год выхода: 2011
Жанр: Драма, спорт
Режиссер: Гэвин О’Коннор
В ролях: Джоэл Эдгертон, Том Харди, Ник Нолти, Дженнифер Моррисон, Фрэнк Грилло, Кевин Данн, Максимилиано Эрнандез, Брайан Коллен, Гэвин О’Коннор, Сэм Шеридан
О фильме:
Томми Конлон — молодой боец, вернувшийся домой после долгого отсутствия, чтобы приготовиться к участию в большом турнире. Отец-пьяница, в прошлом талантливый боксер, берется тренировать сына. Томми с успехом проходит все этапы соревнования, но кто бы мог подумать, что в финале судьба столкнет его на ринге… с собственным братом.

Страна: США
Студия: Lionsgate, Filmtribe
Продолжительность: 02:19:54
Перевод: Профессиональный (многоголосый, закадровый) |R5| + Оригинал
Файл
Кодек: x264
Качество: BDRip 1080p (источник: Blu-ray Remux / 1080p)
Видео: 1920х800 (2.40:1), 10544 Kbps, 23.976 fps, 0.286 bit/pixel
Аудио #1: 48.0 kHz, AC3 Dolby Digital, 3/2 (L,C,R,l,r) + LFE ch, 640 kbps [Многоголосый, R5]
Аудио #2: 48.0 kHz, AC3 Dolby Digital, 3/2 (L,C,R,l,r) + LFE ch, 640 kbps [Оригинал, Английский]
Аудио #3: 48.0 kHz, AC3 Dolby Digital, 3/2 (L,C,R,l,r) + LFE ch, 640 kbps [Авторский, Ю. Сербин] Отдельно на disk.yandex.ru
Субтитры: Русские, английские [полные, SDH]
Семпл

x264

x264 [info]: frame I:1056 Avg QP:17.90 size:154071
x264 [info]: frame P:47960 Avg QP:20.81 size: 75848
x264 [info]: frame B:152244 Avg QP:22.92 size: 47685

MediaInfo

General
Unique ID : 200799334578975295290183964754993091682 (0x97108B8D7FFD22DE9701A060F9361462)
Complete name : E:Warrior.2011.x264.BDRip.1080p.mkv
Format : Matroska
Format version : Version 2
File size : 11.6 GiB
Duration : 2h 19mn
Overall bit rate : 11.8 Mbps
Encoded date : UTC 2014-01-10 09:36:17
Writing application : mkvmerge v5.8.0 ('No Sleep / Pillow') built on Sep 2 2012 15:37:04
Writing library : libebml v1.2.3 + libmatroska v1.3.0
Video
ID : 1
Format : AVC
Format/Info : Advanced Video Codec
Format profile : [email protected]
Format settings, CABAC : Yes
Format settings, ReFrames : 5 frames
Codec ID : V_MPEG4/ISO/AVC
Duration : 2h 19mn
Bit rate : 10.5 Mbps
Width : 1 920 pixels
Height : 800 pixels
Display aspect ratio : 2.40:1
Frame rate mode : Constant
Frame rate : 23.976 fps
Color space : YUV
Chroma subsampling : 4:2:0
Bit depth : 8 bits
Scan type : Progressive
Bits/(Pixel*Frame) : 0.286
Stream size : 10.1 GiB (87%)
Writing library : x264 core 140 r2377 1ca7bb9
Encoding settings : cabac=1 / ref=5 / deblock=1:0:0 / analyse=0x3:0x133 / me=tesa / subme=11 / psy=1 / psy_rd=1.00:0.00 / mixed_ref=1 / me_range=32 / chroma_me=1 / trellis=2 / 8x8dct=1 / cqm=0 / deadzone=21,11 / fast_pskip=0 / chroma_qp_offset=-2 / threads=12 / lookahead_threads=3 / sliced_threads=0 / nr=0 / decimate=0 / interlaced=0 / bluray_compat=0 / constrained_intra=0 / bframes=10 / b_pyramid=2 / b_adapt=2 / b_bias=0 / direct=3 / weightb=0 / open_gop=0 / weightp=2 / keyint=240 / keyint_min=23 / scenecut=40 / intra_refresh=0 / rc=2pass / mbtree=0 / bitrate=10544 / ratetol=1.0 / qcomp=0.60 / qpmin=0 / qpmax=69 / qpstep=4 / cplxblur=20.0 / qblur=0.5 / ip_ratio=1.40 / pb_ratio=1.30 / aq=1:1.00
Language : English
Default : Yes
Forced : No
Audio #1
ID : 2
Format : AC-3
Format/Info : Audio Coding 3
Mode extension : CM (complete main)
Format settings, Endianness : Big
Codec ID : A_AC3
Duration : 2h 19mn
Bit rate mode : Constant
Bit rate : 640 Kbps
Channel count : 6 channels
Channel positions : Front: L C R, Side: L R, LFE
Sampling rate : 48.0 KHz
Bit depth : 16 bits
Compression mode : Lossy
Stream size : 640 MiB (5%)
Title : Многоголосый, R5
Language : Russian
Default : Yes
Forced : No
Audio #2
ID : 3
Format : AC-3
Format/Info : Audio Coding 3
Mode extension : CM (complete main)
Format settings, Endianness : Big
Codec ID : A_AC3
Duration : 2h 19mn
Bit rate mode : Constant
Bit rate : 640 Kbps
Channel count : 6 channels
Channel positions : Front: L C R, Side: L R, LFE
Sampling rate : 48.0 KHz
Bit depth : 16 bits
Compression mode : Lossy
Stream size : 640 MiB (5%)
Title : Оригинал, Английский
Language : English
Default : No
Forced : No
Text #1
ID : 4
Format : UTF-8
Codec ID : S_TEXT/UTF8
Codec ID/Info : UTF-8 Plain Text
Language : Russian
Default : No
Forced : No
Text #2
ID : 5
Format : UTF-8
Codec ID : S_TEXT/UTF8
Codec ID/Info : UTF-8 Plain Text
Title : Полные
Language : English
Default : No
Forced : No
Text #3
ID : 6
Format : UTF-8
Codec ID : S_TEXT/UTF8
Codec ID/Info : UTF-8 Plain Text
Title : SDH
Language : English
Default : No
Forced : No
Menu
00:00:00.000 : en:00:00:00.000
00:10:32.840 : en:00:10:32.840
00:16:46.714 : en:00:16:46.714
00:26:34.551 : en:00:26:34.551
00:39:08.971 : en:00:39:08.971
00:45:49.622 : en:00:45:49.622
00:51:28.919 : en:00:51:28.919
00:58:27.796 : en:00:58:27.796
01:06:02.458 : en:01:06:02.458
01:14:27.254 : en:01:14:27.254
01:22:32.906 : en:01:22:32.906
01:30:35.638 : en:01:30:35.638
01:40:46.040 : en:01:40:46.040
01:52:55.977 : en:01:52:55.977
02:00:21.089 : en:02:00:21.089
02:06:50.394 : en:02:06:50.394

Скриншоты:

Яндекс.Метрика
Рейтинг@Mail.ru