Со мною вот что происходит (Виктор Шамиров) [2012, Драма, WEB-DL, 1080p-LQ]

 

Создавать темы 07-Янв-2017 15:52

- Со мною вот что происходит - Производство: Россия | Кинокомпания «Сцена», YBW-group
Жанр: Драма
Режиссер: Виктор Шамиров
Актеры: Гоша Куценко, Виктор Шамиров, Александра Петрова (II), Олеся Железняк, Николай Чиндяйкин, Маргарита Шубина, Александр Робак, Михаил Шульц, Александр Гришаев, Павел Сборщиков
Описание:
31 декабря. Московские невозможные пробки. Спешка без результатов, помощь, от которой никому не становится легче. Разговоры о бесконечных мелочах, в которых проходит жизнь – а может, уже и прошла. Об отце, которому осталось всего ничего, и ничего не сделаешь. О планах пятнадцатилетней девочки на жизнь: можно стать онкологом, можно – дизайнером еды. О том, что было, и что теперь.
Это не сюжетный фильм, это лирика суеты под музыку Таривердиева и воспоминание о счастье, о времени, когда «Ирония судьбы» на самом деле могла утешить и обнадежить и пообещать в Новом году новую жизнь.


Возраст: 16+ (зрителям, достигшим 16 лет)
Дата мировой премьеры: 19 ноября 2012
Дата российской премьеры: 6 декабря 2012, «Другое кино», «All Media»
Дата выхода DVD/Blu-ray релиза: 12 ноября 2013, «Lizard Cinema Trade»
Релиз от: MegaPeer
Продолжительность: 01:13:39
Качество видео: WEB-DL 1080p-LQ http://sendfile.su/1296992
Перевод: Не требуется (русский)
Субтитры: Отсутствуют
Видео: AVC/H.264, 1920x816, ~ 5000 kbps
Аудио: AC3, 2 ch, 192 kbps

МИ

Общее
Уникальный идентификатор                 : 192284409200047267321780256958689923818 (0x90A8A1519F7C20F580D591C40C8152EA)
Полное имя                               : D:\Загрузки uTorrent\Со мною вот что происходит.2012.WED-DL.1080p-LQ.mkv
Формат                                   : Matroska
Версия формата                           : Version 2
Размер файла                             : 2,67 Гбайт
Продолжительность                        : 1 ч. 13 м.
Общий поток                              : 5195 Кбит/сек
Дата кодирования                         : UTC 2017-01-05 07:54:56
Программа кодирования                    : mkvmerge v6.1.0 ('Old Devil') built on Mar  4 2013 09:10:42
Библиотека кодирования                   : libebml v1.3.0 + libmatroska v1.4.0
Видео
Идентификатор                            : 1
Формат                                   : AVC
Формат/Информация                        : Advanced Video Codec
Профиль формата                          : [email protected]
Параметр CABAC формата                   : Да
Параметр ReFrames формата                : 3 кадра
Идентификатор кодека                     : V_MPEG4/ISO/AVC
Продолжительность                        : 1 ч. 13 м.
Битрейт                                  : 5000 Кбит/сек
Ширина                                   : 1920 пикселей
Высота                                   : 816 пикселей
Соотношение сторон                       : 2,35:1
Режим частоты кадров                     : Постоянный
Частота кадров                           : 25,000 кадров/сек
Цветовое пространство                    : YUV
Субдискретизация насыщенности            : 4:2:0
Битовая глубина                          : 8 бит
Тип развёртки                            : Прогрессивная
Бит/(Пиксели*Кадры)                      : 0.128
Размер потока                            : 2,52 Гбайт (94%)
Библиотека кодирования                   : x264 core 142 r2479 dd79a61
Настройки программы                      : cabac=1 / ref=3 / deblock=1:0:0 / analyse=0x3:0x133 / me=hex / subme=6 / psy=1 / psy_rd=1.00:0.00 / mixed_ref=0 / me_range=16 / chroma_me=1 / trellis=1 / 8x8dct=1 / cqm=0 / deadzone=21,11 / fast_pskip=0 / chroma_qp_offset=-2 / threads=12 / lookahead_threads=2 / sliced_threads=0 / nr=0 / decimate=1 / interlaced=0 / bluray_compat=0 / constrained_intra=0 / bframes=3 / b_pyramid=1 / b_adapt=2 / b_bias=0 / direct=1 / weightb=1 / open_gop=0 / weightp=2 / keyint=96 / keyint_min=49 / scenecut=0 / intra_refresh=0 / rc_lookahead=40 / rc=2pass / mbtree=1 / bitrate=5000 / ratetol=1.0 / qcomp=0.60 / qpmin=0 / qpmax=69 / qpstep=4 / cplxblur=20.0 / qblur=0.5 / ip_ratio=1.40 / aq=1:1.00
Default                                  : Да
Forced                                   : Нет
Цветовой диапазон                        : Limited
Основные цвета                           : BT.709
Характеристики трансфера                 : BT.709
Коэффициенты матрицы                     : BT.709
Аудио
Идентификатор                            : 2
Формат                                   : AC-3
Формат/Информация                        : Audio Coding 3
Расширение режима                        : CM (complete main)
Параметр Endianness формата              : Big
Идентификатор кодека                     : A_AC3
Продолжительность                        : 1 ч. 13 м.
Вид битрейта                             : Постоянный
Битрейт                                  : 192 Кбит/сек
Каналы                                   : 2 канала
Расположение каналов                     : Front: L R
Частота                                  : 48,0 КГц
Частота кадров                           : 31,250 кадров/сек (1536 spf)
Битовая глубина                          : 16 бит
Метод сжатия                             : С потерями
Размер потока                            : 101 Мбайт (4%)
Default                                  : Да
Forced                                   : Нет
Скриншоты:
Рейтинг@Mail.ru