Против всех правил (Виктор Демент) [2016, Комедия, SATRip]

 

Создавать темы 07-Янв-2017 15:35

- Против всех правил - Производство: Россия
Жанр: Комедия
Режиссер: Виктор Демент
Актеры: Алексей Макаров, Александр Яценко, Алексей Дмитриев, Маргарита Шубина, Анатолий Горячев, Тимур Боканча, Игорь Ливанов, Андрей Стоянов
Описание:
Полковником Колодой, завербованным иностранной разведкой, похищены секретные документы государственной важности. На самом деле, документы — фальшивка, дезинформация для зарубежных спецслужб. Слежка за предателем приводит оперативников в банк, где он оставляет документы в ячейке под номером 69. Чтобы установить, кто придет за ними, в банк под видом клиента приходит капитан Алексей Верещагин. По иронии судьбы, именно этот банк хочет ограбить доведенный до отчаяния кандидат наук и отец-одиночка Михаил Дрыскин. Увидев полицию, он с перепугу берет в заложники посетителей банка.

Релиз от: Files-x
Качество видео: SATRip http://sendfile.su/1296963
Перевод: Не требуется (русский)
Субтитры: Отсутствуют
Видео: Xvid, 720x400, ~ 2105 kbps
Аудио: MP3, 2 ch, 128 kbps

МИ

Общее
Полное имя                               : D:\Загрузки uTorrent\Против всех правил.2016.SATRip.XviD.avi
Формат                                   : AVI
Формат/Информация                        : Audio Video Interleave
Размер файла                             : 1,37 Гбайт
Продолжительность                        : 1 ч. 27 м.
Общий поток                              : 2246 Кбит/сек
Видео
Идентификатор                            : 0
Формат                                   : MPEG-4 Visual
Профиль формата                          : Advanced [email protected]
Параметр BVOP формата                    : 2
Параметр QPel формата                    : Нет
Параметр GMC формата                     : Без точки перехода
Параметр матрицы формата                 : Default (H.263)
Идентификатор кодека                     : XVID
Идентификатор кодека/Подсказка           : XviD
Продолжительность                        : 1 ч. 27 м.
Битрейт                                  : 2105 Кбит/сек
Ширина                                   : 720 пикселей
Высота                                   : 400 пикселей
Соотношение сторон                       : 16:9
Частота кадров                           : 25,000 кадров/сек
Цветовое пространство                    : YUV
Субдискретизация насыщенности            : 4:2:0
Битовая глубина                          : 8 бит
Тип развёртки                            : Прогрессивная
Метод сжатия                             : С потерями
Бит/(Пиксели*Кадры)                      : 0.292
Размер потока                            : 1,29 Гбайт (94%)
Библиотека кодирования                   : XviD 1.2.1 (UTC 2008-12-04)
Аудио
Идентификатор                            : 1
Формат                                   : MPEG Audio
Версия формата                           : Version 1
Профиль формата                          : Layer 3
Режим                                    : Joint stereo
Расширение режима                        : MS Stereo
Идентификатор кодека                     : 55
Идентификатор кодека/Подсказка           : MP3
Продолжительность                        : 1 ч. 27 м.
Вид битрейта                             : Постоянный
Битрейт                                  : 128 Кбит/сек
Каналы                                   : 2 канала
Частота                                  : 48,0 КГц
Метод сжатия                             : С потерями
Размер потока                            : 80,1 Мбайт (6%)
Выравнивание                             : Соединение по промежуткам
Продолжительность промежутка             : 24  мс. (0,60 видеокадр)
Библиотека кодирования                   : LAME3.99r
Настройки программы                      : -m j -V 4 -q 9 -lowpass 17 -b 128
Скриншоты:
Рейтинг@Mail.ru