Ищу жену с ребёнком / Ищу жену с ребёнком [01-04 из 04] (Алексей Кирющенко) [2014, Комедия, WEB-DL]

 

Создавать темы 22-Окт-2016 18:40

- Ищу жену с ребёнком (01-04 из 04) - Производство: Украина, Студия «Квартал 95»
Жанр: Комедия
Режиссер: Алексей Кирющенко
Актеры: Ольга Медынич, Мария Горбань, Олег Мазуров, Сергей Бурунов, София Стеценко, Костя Чернокрылюк
Описание:
Пылкие влюблённые Борис и Вера решили свой роман сделать ещё и курортным. И Вера соврала своему мужу Игорю, что уезжает отдохнуть в Ялту со своей подругой-астрологом Кариной. Но Игорь неожиданно захотел ехать вместе с женой. Спасая положение, Борис пригласил на роль мифической подруги свою соседку и бывшую одноклассницу — Ладу.
Ладе приходится то разыгрывать из себя астролога, то исполнять роль жены Бориса, то притворяться подругой Веры.


Качество видео: WEB-DL
Перевод: Отсутствует
Язык: Русский
Видео: MPEG-4 AVC, 1920x1090, ~3500 Kbps
Аудио: AC3, 2 ch, 192 Kbps

МИ

Общее
Уникальный идентификатор : 54924591428283826178375310970844599211 (0x2952176E9BB096AA7A2B6E783847D3AB)
Полное имя : D:\***\Ichiu.zenu.s.rebionkom.2014.WEB-DL.1080.Files-x\02.Ichiu.zenu.s.rebionkom.2014.WEB-DL.1080.Files-x.mkv
Формат : Matroska
Версия формата : Version 2
Размер файла : 1,24 Гбайт
Продолжительность : 45 м. 49 с.
Общий поток : 3860 Кбит/сек
Программа кодирования : Lavf54.63.104
Библиотека кодирования : Lavf54.63.104 / Lavf54.63.104
Видео
Идентификатор : 1
Формат : AVC
Формат/Информация : Advanced Video Codec
Профиль формата : [email protected]
Параметр CABAC формата : Да
Параметр ReFrames формата : 2 кадра
Идентификатор кодека : V_MPEG4/ISO/AVC
Продолжительность : 45 м. 49 с.
Битрейт : 3591 Кбит/сек
Ширина : 1920 пикселей
Высота : 1080 пикселей
Соотношение сторон : 16:9
Режим частоты кадров : Постоянный
Частота кадров : 25,000 кадров/сек
Цветовое пространство : YUV
Субдискретизация насыщенности : 4:2:0
Битовая глубина : 8 бит
Тип развёртки : Прогрессивная
Бит/(Пиксели*Кадры) : 0.069
Размер потока : 1,15 Гбайт (93%)
Default : Да
Forced : Нет
Аудио
Идентификатор : 2
Формат : AC-3
Формат/Информация : Audio Coding 3
Расширение режима : CM (complete main)
Параметр Endianness формата : Big
Идентификатор кодека : A_AC3
Продолжительность : 45 м. 49 с.
Вид битрейта : Постоянный
Битрейт : 192 Кбит/сек
Каналы : 2 канала
Расположение каналов : Front: L R
Частота : 44,1 КГц
Частота кадров : 28,711 кадров/сек (1536 spf)
Метод сжатия : С потерями
Задержка видео : -40 мс.
Размер потока : 62,9 Мбайт (5%)
Default : Да
Forced : Нет
Скриншоты:
Рейтинг@Mail.ru