[ Сегодня на трекере фрилич! Идет свободное скачивание без начисления Download ]

В долине насилия / In a Valley of Violence (Тай Уэст / Ti West) [2016, Вестерн, WEB-DLRip]

 

Создавать темы 22-Окт-2016 16:21

- В долине насилия / In a Valley of Violence- Производство: США
Жанр: Вестерн
Режиссер: Тай Уэст
Продюсер: Джейсон Блум, Джейкоб Джаффке, Питер Фок
Актеры: Карен Гиллан, Итан Хоук, Таисса Фармига, Джон Траволта, Берн Горман, Джеймс Рэнсон, Тоби Хасс, Ларри Фессенден, Харрисон Суини, Джампи.
Описание:
Бродяга по имени Пол, которому нечего терять, стремится отомстить бандитам, убившим его лучшего друга.


Рейтинг MPAA: R (лицам до 17 лет обязательно присутствие взрослого)
Дата мировой премьеры: 12 марта 2016
Релиз от: KOSHARA
Продолжительность: 01:42:51
Качество видео: WEB-DLRip http://my-files.ru/rw5cos
Перевод: Многоголосый закадровый, профессиональный (Синема УС)
Вид субтитров: Отсутствуют
Реклама: Присутствуют голосовые и текстовые вставки рекламы. Начальный рекламный ролик вырезан.
Видео: Xvid, 720x304, 23,976 fps, ~1620 kbps
Аудио: AC3, 2 ch, 384 Kbps, CBR

МИ

Общее
Полное имя : D:\Фильмы\Мои раздачи\В долине насилия\In.a.Valley.of.Violence.2016.P.WEB-DLRip.14OOMB.avi
Формат : AVI
Формат/Информация : Audio Video Interleave
Размер файла : 1,45 Гбайт
Продолжительность : 1 ч. 42 м.
Общий поток : 2014 Кбит/сек
Программа кодирования : VirtualDubMod 1.5.10.2 (build 2540/release)
Библиотека кодирования : VirtualDub build 35390/release
Видео
Идентификатор : 0
Формат : MPEG-4 Visual
Профиль формата : Advanced [email protected]
Параметр BVOP формата : 2
Параметр QPel формата : Нет
Параметр GMC формата : Без точки перехода
Параметр матрицы формата : Выборочная
Идентификатор кодека : XVID
Идентификатор кодека/Подсказка : XviD
Продолжительность : 1 ч. 42 м.
Битрейт : 1620 Кбит/сек
Ширина : 720 пикселей
Высота : 304 пикселя
Соотношение сторон : 2,35:1
Частота кадров : 23,976 кадра/сек
Цветовое пространство : YUV
Субдискретизация насыщенности : 4:2:0
Битовая глубина : 8 бит
Тип развёртки : Прогрессивная
Метод сжатия : С потерями
Бит/(Пиксели*Кадры) : 0.309
Размер потока : 1,16 Гбайт (80%)
Библиотека кодирования : XviD 1.2.1 (UTC 2008-12-04)
Аудио
Идентификатор : 1
Формат : AC-3
Формат/Информация : Audio Coding 3
Расширение режима : CM (complete main)
Параметр Endianness формата : Big
Идентификатор кодека : 2000
Продолжительность : 1 ч. 42 м.
Вид битрейта : Постоянный
Битрейт : 384 Кбит/сек
Каналы : 2 канала
Расположение каналов : Front: L R
Частота : 48,0 КГц
Битовая глубина : 16 бит
Метод сжатия : С потерями
Задержка видео : 7 мс.
Размер потока : 283 Мбайт (19%)
Выравнивание : Разделение по промежуткам
Продолжительность промежутка : 42 мс. (1,00 видеокадр)
Время предзагрузки промежутка : 500 мс.
Скриншоты:
Рейтинг@Mail.ru