Девять жизней / Nine Lives (Барри Зонненфельд / Barry Sonnenfeld) [2016, Фэнтези, Комедия, Семейный, HDRip] DUB [звук с TS]

 

Создавать темы 21-Окт-2016 19:35

- Девять жизней / Nine Lives - Производство: Франция, Китай
Жанр: Фэнтези, Комедия, Семейный
Режиссер: Барри Зонненфельд
Продюсер: Лиза Эллзи, Энри Денебур, Тьерри Гилмор
Актеры: Кевин Спейси, Дженнифер Гарнер, Робби Амелл, Шерил Хайнс, Марк Консуэлос, Малина Вайсман, Кристофер Уокен, Талита Бейтман, Тедди Сирс, Джей Пэттерсон/
Описание:
Том Бренд — миллиардер-трудоголик с чудинкой. Он с головой погружен в работу и немного выпал из семейной жизни — даже подарок дочери он покупает в последний момент. Ребекка мечтает о настоящем коте, и как бы Том ни презирал животных, он отправляется в зоомагазин, где выбирает самого роскошного кота по кличке Мистер Пушистые Штаны. В спешке на праздник дочери Том попадает в аварию, а очнувшись, обнаруживает себя в теле этого самого кота. Пока Том-человек отсыпается в больнице, Том-Пушистые Штаны вынужден на собственной шкуре испытать все прелести кошачьей жизни и вернуть любовь семьи, чтобы не остаться навсегда в роли питомца. Благо, жена и дочь принимают кота как родного. Но как заставить их разглядеть в Мистере Пушистые Штаны раскаявшегося отца семейства?


Возраст: 6+ (зрителям, достигшим 6 лет)
Рейтинг MPAA: PG-13 (детям до 13 лет просмотр нежелателен)
Дата мировой премьеры: 3 августа 2016
Дата российской премьеры: 1 сентября 2016, «Наше Кино»
Релиз от: KOSHARA
Продолжительность: 01:26:38
Качество видео: HDRip http://my-files.ru/v1w5lk
Перевод: Дублированный (звук с TS)
Вид субтитров: отсутствуют
Реклама: Присутствуют голосовые и текстовые вставки рекламы. Начальный рекламный ролик вырезан.
Видео: Xvid, 720x384, 23,976 fps, ~1846 kbps
Аудио: AC3, 2 ch, 384 Kbps, CBR

МИ

Общее
Полное имя : D:\Фильмы\Мои раздачи\Девять жизней\Nine.Lives.2016.Dt.HDRip.14OOMB.avi
Формат : AVI
Формат/Информация : Audio Video Interleave
Размер файла : 1,36 Гбайт
Продолжительность : 1 ч. 26 м.
Общий поток : 2239 Кбит/сек
Программа кодирования : VirtualDubMod 1.5.10.2 (build 2540/release)
Библиотека кодирования : VirtualDub build 35390/release
Видео
Идентификатор : 0
Формат : MPEG-4 Visual
Профиль формата : Advanced [email protected]
Параметр BVOP формата : 2
Параметр QPel формата : Нет
Параметр GMC формата : Без точки перехода
Параметр матрицы формата : Выборочная
Идентификатор кодека : XVID
Идентификатор кодека/Подсказка : XviD
Продолжительность : 1 ч. 26 м.
Битрейт : 1846 Кбит/сек
Ширина : 720 пикселей
Высота : 384 пикселя
Соотношение сторон : 1,85:1
Частота кадров : 23,976 кадра/сек
Цветовое пространство : YUV
Субдискретизация насыщенности : 4:2:0
Битовая глубина : 8 бит
Тип развёртки : Прогрессивная
Метод сжатия : С потерями
Бит/(Пиксели*Кадры) : 0.278
Размер потока : 1,12 Гбайт (82%)
Библиотека кодирования : XviD 1.2.1 (UTC 2008-12-04)
Аудио
Идентификатор : 1
Формат : AC-3
Формат/Информация : Audio Coding 3
Расширение режима : CM (complete main)
Параметр Endianness формата : Big
Идентификатор кодека : 2000
Продолжительность : 1 ч. 26 м.
Вид битрейта : Постоянный
Битрейт : 384 Кбит/сек
Каналы : 2 канала
Расположение каналов : Front: L R
Частота : 48,0 КГц
Битовая глубина : 16 бит
Метод сжатия : С потерями
Задержка видео : 7 мс.
Размер потока : 238 Мбайт (17%)
Выравнивание : Разделение по промежуткам
Продолжительность промежутка : 42 мс. (1,00 видеокадр)
Время предзагрузки промежутка : 500 мс.
Скриншоты:
Рейтинг@Mail.ru