[ Сегодня на трекере фрилич! Идет свободное скачивание без начисления Download ]

Ментовские войны 10 / Сезон: 10 / Серии: 1 - 8 из 16 (Денис Скворцов) [2016 г., Боевик, детектив, криминал, SATRip]

 

Создавать темы 21-Окт-2016 02:48

-Ментовские войны 10Серии: 1 - 8 из 16-- Производство: Россия, Студия Панорама
Жанр: Боевик, детектив, криминал
Год выпуска: 2016 г.
Продолжительность: 8 х ~ 00:44:30Российская премьера: 17 октября 2016
Режиссер: Денис Скворцов-В ролях:
Александр Устюгов, Дмитрий Быковский-Ромашов, Всеволод Цурило, Мария Иванова (IV), Ольга Павловец, Андрей Родимов, Роберт Студеновский, Дмитрий Мухамадеев, Сергей Евсеев, Андрей Кузнецов, Дмитрий Лебедев (III), Антон Гриценко, Денис Баканов, Михаил Новицкий, Максим Матвеев (II), Сергей Хомченков, Сергей Выборнов, Владимир Маслаков, Ксения Алексеева, Андрей Полищук, Сергей Гарусов, Виктор Янишевский, Стэнли Красовицки, Сергей Стукалов, Мария Фефилова, Антон Успенский, Антон Быстров, Константин Китанин, Рустам Насыров, Андрей Шаповал, Андрей Аладьин, Гавриил Федотов, Герасим Архипов, Елизавета Ковалева, Александр Лисицын, Сергей Лысов, Андрей Карако, Дмитрий Олейник, Никита Барсуков-Описание:
Прошел год, как Шилова и его верных друзей перевели в отдел по борьбе с незаконным оборотом оружия. За это время сынишка Шилова и Максаковой немного подрос, Джексон более-менее наладил отношения с Юлией, а Арнаутов с Морозовой всё так же с нежностью глядят друг на друга. Панайотов скрылся в неизвестном направлении и не дает о себе знать, а Марианна, пытаясь хоть как-то наладить новую жизнь, после всех пережитых ужасов, с головой уходит в создание телевизионного ток-шоу "Горькая правда". Именно по приглашению Марианны Шилов должен принять участие в качестве эксперта на съемках сюжета программы. Но этим планам не суждено сбыться. Группа неопознанных людей, ворвалась в студию и расстреляла всех, кто там был – режиссера, операторов, техперсонал, Марианну. Следователи связывают эти убийства с репортажем, над которым работала группа – скандал вокруг генерала Калюжного. Неприятности у генерала идут одна за другой с тех пор, как он перешел дорогу важной «шишке» из Минобороны – Волчанской. И хотя, расследование убийств теперь вне компетенции Шилова, оставаться в стороне он точно не собирается.-
Качество видео: SATRip
Контейнер: AVI
Видео кодек: XviD
Аудио кодек: MP3
Видео: 720x400 (1.80:1), 25.001 fps, XviD MPEG-4 ~1807 kbps avg, 0.25 bit/pixel
Аудио: 48 kHz, MPEG Layer 3, 2 ch, ~192.00 kbps avg
Cубтитры: отсутствуют

Media Info

Общее
Полное имя : F:\Кино\Ментовские войны 10 SATRip.avi
Формат : AVI
Формат/Информация : Audio Video Interleave
Размер файла : 640 Мбайт
Продолжительность : 44 м.
Общий поток : 2009 Кбит/сек
Программа кодирования : VirtualDubMod 1.5.10.3 (build 2550/release)
Библиотека кодирования : VirtualDubMod build 2550/releaseВидео
Идентификатор : 0
Формат : MPEG-4 Visual
Профиль формата : Advanced [email protected]/* */
Параметр BVOP формата : 2
Параметр QPel формата : Нет
Параметр GMC формата : Без точки перехода
Параметр матрицы формата : Default (MPEG)
Идентификатор кодека : XVID
Идентификатор кодека/Подсказка : XviD
Продолжительность : 44 м.
Битрейт : 1807 Кбит/сек
Ширина : 720 пикселей
Высота : 400 пикселей
Соотношение сторон : 16:9
Частота кадров : 25,000 кадров/сек
Цветовое пространство : YUV
Субдискретизация насыщенности : 4:2:0
Битовая глубина : 8 бит
Тип развёртки : Прогрессивная
Метод сжатия : С потерями
Бит/(Пиксели*Кадры) : 0.251
Размер потока : 576 Мбайт (90%)
Библиотека кодирования : XviD 73Аудио
Идентификатор : 1
Формат : MPEG Audio
Версия формата : Version 1
Профиль формата : Layer 3
Режим : Joint stereo
Идентификатор кодека : 55
Идентификатор кодека/Подсказка : MP3
Продолжительность : 44 м.
Вид битрейта : Постоянный
Битрейт : 192 Кбит/сек
Каналы : 2 канала
Частота : 48,0 КГц
Метод сжатия : С потерями
Размер потока : 61,2 Мбайт (10%)
Выравнивание : Разделение по промежуткам
Продолжительность промежутка : 40 мс. (1,00 видеокадр)
Время предзагрузки промежутка : 500 мс.

Скриншот c названием фильма

Внимание! Раздача ведётся путём добавления новых серий!

при каждом добавлении создётся новый торрент. Чтобы начать докачку новой серии, пользователям необходимо сделать следующее:
(1) остановить скачивание,
(2) удалить старый торрент у себя из клиента (старые серии удалять не надо),
(3) скачать новый торрент и запустить его у себя в клиенте, при этом указать клиенту путь в старую папку куда и должно происходить скачивание новых серий.
Ваш клиент при этом должен произвести хеширование (проверку) старой папки и будет докачивать только те серии которых у вас ещё нет. Старые серии при этом не удаляются, а продолжают раздаваться!
Eсли вы уже удалили старые серии, то предотвратить повторную закачку старых серий можно, отжав галочку в соответствующих местах при запуске нового торрента. (по возможности, желательно не удалять старые серии как можно дольше чтобы релизёр не столько продолжал раздавать старые серии, а смог сконцентрироваться на новых)
Скриншоты
-
Рейтинг@Mail.ru