Мир Дикого Запада / Westworld / Сезон 1 / Серии: 01-03 из 10 (Джонатан Нолан / Jonathan Nolan) [2016 г., фантастика, триллер, вестерн, WEB-DL, 1080p] MVO (AlexFilm) + Original (Eng) [Обновляемая]

 

Создавать темы 20-Окт-2016 04:33

-Мир Дикого Запада / Westworld-- Производство: США
Жанр: фантастика, триллер, вестерн
Год выпуска: 2016 г.
Продолжительность: 01:05:22Мировая премьера: 2 октября 2016
Российская премьера: 3 октября 2016
Перевод: Профессиональный (многоголосый, закадровый)[AlexFilm]
Оригинальный аудиопоток: английскийРежиссер: Джонатан Нолан / Jonathan Nolan, Джонни Кэмпбелл / Jonny Campbell, Ричард Дж. Льюис / Richard J. Lewis-В ролях: Энтони Хопкинс, Эд Харрис, Эван Рэйчел Вуд, Джеймс Марсден, Тэнди Ньютон, Джеффри Райт, Тесса Томпсон, Джимми Симпсон, Родриго Санторо, Шеннон Мари Вудворд-Описание: В футуристическом парке развлечений андроиды на фоне для исторических декораций становятся рабами людей, выполняя рутинные задания, пока в один момент сбой в программе не превращает их в опасных убийц.-
Качество видео: WEB-DL
Контейнер: MKV
Стандарт разрешения: 1080p
Видео кодек: MPEG4 AVC
Аудио кодек: AC3
Видео: 23.976 fps, 1920 x 1080, ~3500 kbps avg, 0.071 bit/pixel
Аудио: 48 kHz, AC3 Dolby Digital, 3/2 (L,C,R,l,r) + LFE ch, ~384.00 kbps
Аудио #2: 48 kHz, AC3 Dolby Digital, 3/2 (L,C,R,l,r) + LFE ch, ~384.00 kbpsCубтитры: отсутствуют
Перевод: Константин Кривоногов
Монтаж и сведение звука: Михаил Шорыгин (1), Михаил Суслов (2)
Роли озвучивали: Татьяна Манетина (1)
Светлана Чистохина(2)
Екатерина Муравицкая
Михаил Суслов
Владимир Курдов
Роман Сопко
Станислав Черсков

Media Info

Format : Matroska
Format version : Version 4 / Version 2
File size : 2.19 GiB
Duration : 1 h 11 min
Overall bit rate mode : Variable
Overall bit rate : 4 376 kb/s
Encoded date : UTC 2016-10-04 19:12:08
Writing application : mkvmerge v6.1.0 ('Old Devil') built on Mar 4 2013 09:10:42
Writing library : libebml v1.3.0 + libmatroska v1.4.0
Video
ID : 1
Format : AVC
Format/Info : Advanced Video Codec
Format profile : [email protected]/* */
Format settings, CABAC : Yes
Format settings, ReFrames : 4 frames
Codec ID : V_MPEG4/ISO/AVC
Duration : 1 h 11 min
Bit rate mode : Variable
Bit rate : 3 521 kb/s
Maximum bit rate : 4 510 kb/s
Width : 1 920 pixels
Height : 1 080 pixels
Display aspect ratio : 16:9
Frame rate mode : Constant
Frame rate : 23.976 (24000/1001) FPS
Color space : YUV
Chroma subsampling : 4:2:0
Bit depth : 8 bits
Scan type : Progressive
Bits/(Pixel*Frame) : 0.071
Stream size : 1.76 GiB (80%)
Language : English
Default : Yes
Forced : No
Audio #1
ID : 2
Format : AC-3
Format/Info : Audio Coding 3
Mode extension : CM (complete main)
Format settings, Endianness : Big
Codec ID : A_AC3
Duration : 1 h 11 min
Bit rate mode : Constant
Bit rate : 384 kb/s
Channel(s) : 6 channels
Channel positions : Front: L C R, Side: L R, LFE
Sampling rate : 48.0 kHz
Frame rate : 31.250 FPS (1536 spf)
Compression mode : Lossy
Stream size : 196 MiB (9%)
Title : DD 5.1 AlexFilm
Language : Russian
Default : Yes
Forced : No
Audio #2
ID : 3
Format : AC-3
Format/Info : Audio Coding 3
Mode extension : CM (complete main)
Format settings, Endianness : Big
Codec ID : A_AC3
Duration : 1 h 11 min
Bit rate mode : Constant
Bit rate : 384 kb/s
Channel(s) : 6 channels
Channel positions : Front: L C R, Side: L R, LFE
Sampling rate : 48.0 kHz
Frame rate : 31.250 FPS (1536 spf)
Compression mode : Lossy
Delay relative to video : 29 ms
Stream size : 196 MiB (9%)
Title : Eng
Language : English
Default : No
Forced : No

Скриншот c названием фильма

Скриншоты

Рейтинг@Mail.ru