Молодость по страховке / Wild Oats (Энди Теннант / Andy Tennant) [2016 г., боевик, драма, комедия, приключения, WEB-DLRip-AVC] Dub [iTunes]

 

Создавать темы 18-Окт-2016 04:16

--Молодость по страховке / Wild Oats--«Newly rich. Newly single. Forever young»-- Производство: США, Alliance Cinema, Defiant Pictures
Год выпуска: 2016 г.
Жанр: боевик, драма, комедия, приключения
Продолжительность: 01:27:39--Мировая премьера: 22 августа 2016
Российская премьера: 22 сентября 2016, «Люксор»--Перевод: Профессиональный (полное дублирование) [iTunes]--Режиссер: Энди Теннант / Andy Tennant--В ролях: Джессика Лэнг, Деми Мур, Ширли МакЛейн, Билли Коннолли, Джадд Хёрш, Мэтт Уолш, Ребекка Да Коста, Ховард Хессеман, Стефани Бичем, Джей Хейден--Описание: Эва по ошибке получает чек от страховой компании на 5 миллионов, вместо 50 тысяч долларов. Поддавшись уговорам своей лихой подруги, она обналичивает всю сумму, и подруги уходят в отрыв: рейс на Канары первым классом, президентский люкс, дерзкие знакомства, игра в казино — словом, все шло, как по маслу, пока не случились… Преследование страхового агента, похищение подруг мошенниками, потеря денег, логово самого отъявленного преступника, угроза тюрьмы и многое другое! Такого девичника мы еще не видели.-- --Качество видео: WEB-DLRip-AVC
Контейнер: MKV
Видео кодек: AVC/H.264
Аудио кодек: AC3
Видео: AVC, 984x412 (2,40:1), 1850 kbps, 25 fps, 0.183 bpp
Аудио: 48 kHz, AC3 Dolby Digital, 3/2 (L,C,R,l,r) + LFE ch, ~384 kbps
Cубтитры: отсутствуют.

Media Info

Общее
Уникальный идентификатор : 108091475533493055937109993092837246180 (0x5151A933C6C363D0314B6095F0B384E4)
Полное имя : H:\Torrent2\Молодость по страховке.(2016).WEB-DLRip-AVC.[-=DoMiNo=-].mkv
Формат : Matroska
Версия формата : Version 4 / Version 2
Размер файла : 1,37 Гбайт
Продолжительность : 1 ч. 27 м.
Общий поток : 2235 Кбит/сек
Программа кодирования : XviD4PSP 7.0.304 DAILY
Библиотека кодирования : Lavf57.41.100 / Lavf57.41.100
ENCODING_INFO : MATROSKA,WEBM > MKV Произвольный / H264 > X264 VBR-2P 1850kbps Произвольный / AC3 > COPYВидео
Идентификатор : 1
Формат : AVC
Формат/Информация : Advanced Video Codec
Профиль формата : [email protected]/* */
Параметр CABAC формата : Да
Параметр ReFrames формата : 12 кадров
Идентификатор кодека : V_MPEG4/ISO/AVC
Продолжительность : 1 ч. 27 м.
Битрейт : 1850 Кбит/сек
Ширина : 984 пикселя
Высота : 412 пикселей
Соотношение сторон : 2,40:1
Режим частоты кадров : Постоянный
Частота кадров : 25,000 кадров/сек
Цветовое пространство : YUV
Субдискретизация насыщенности : 4:2:0
Битовая глубина : 8 бит
Тип развёртки : Прогрессивная
Бит/(Пиксели*Кадры) : 0.183
Размер потока : 1,11 Гбайт (81%)
Библиотека кодирования : x264 core 148 r2721M 72d53ab
Настройки программы : cabac=1 / ref=12 / deblock=1:-3:-3 / analyse=0x3:0x133 / me=umh / subme=11 / psy=1 / psy_rd=1.00:0.10 / mixed_ref=1 / me_range=32 / chroma_me=1 / trellis=2 / 8x8dct=1 / cqm=0 / deadzone=21,11 / fast_pskip=0 / chroma_qp_offset=-3 / threads=5 / lookahead_threads=1 / sliced_threads=0 / nr=0 / decimate=1 / interlaced=0 / bluray_compat=0 / constrained_intra=0 / bframes=11 / b_pyramid=2 / b_adapt=2 / b_bias=0 / direct=3 / weightb=1 / open_gop=0 / weightp=2 / keyint=250 / keyint_min=25 / scenecut=40 / intra_refresh=0 / rc_lookahead=60 / rc=2pass / mbtree=1 / bitrate=1850 / ratetol=1.0 / qcomp=0.70 / qpmin=0 / qpmax=69 / qpstep=4 / cplxblur=20.0 / qblur=0.5 / ip_ratio=1.40 / aq=1:1.00
Язык : English
Default : Да
Forced : Нет
Цветовой диапазон : Limited
Основные цвета : BT.709
Характеристики трансфера : BT.709
Коэффициенты матрицы : BT.709
DURATION : 01:27:39.600000000Аудио
Идентификатор : 2
Формат : AC-3
Формат/Информация : Audio Coding 3
Расширение режима : CM (complete main)
Параметр Endianness формата : Big
Идентификатор кодека : A_AC3
Продолжительность : 1 ч. 27 м.
Вид битрейта : Постоянный
Битрейт : 384 Кбит/сек
Каналы : 6 каналов
Расположение каналов : Front: L C R, Side: L R, LFE
Частота : 48,0 КГц
Частота кадров : 31,250 кадров/сек (1536 spf)
Битовая глубина : 32 бит
Метод сжатия : С потерями
Размер потока : 241 Мбайт (17%)
Язык : Russian
Default : Да
Forced : Нет
DURATION : 01:27:39.648000000Меню
00:00:00.000 : :Глава 1
00:09:20.120 : :Глава 2
00:16:05.600 : :Глава 3
00:22:02.000 : :Глава 4
00:26:09.800 : :Глава 5
00:31:28.840 : :Глава 6
00:38:13.240 : :Глава 7
00:45:32.440 : :Глава 8
00:51:39.240 : :Глава 9
00:57:42.240 : :Глава 10
01:05:32.480 : :Глава 11
01:11:47.040 : :Глава 12
01:16:58.760 : :Глава 13

Скриншоты

Трейлер
Рейтинг@Mail.ru