Хладнокровная / Cold Blooded (Джейсон Лапейр / Jason Lapeyre) [2012, Канада, криминал, WEB-DLRip] DVO + Original Eng

 

Создавать темы 07-Окт-2013 07:23

Хладнокровная / Cold Blooded«Who will make it out alive» Страна: Канада
Жанр: криминал
Год выпуска: 2012
Продолжительность: 01:22:27
Перевод: Профессиональный (двухголосый закадровый) [НТВ+]
Cубтитры: нет
Оригинальная аудиодорожка: английский-Режиссер: Джейсон Лапейр / Jason Lapeyre
В ролях: Райан Роббинс, Зои Палмер, Уильям МакДональд, Хусейн Мадхавджи, Томас Митчелл, Серджо Ди Зио, Саманта Бэнтон, Имали Перера, Крис Ратц, Наоми Сникус-Описание: Девушка-полицейский охраняет в больнице выжившего после ограбления ювелирного магазина раненого преступника. Через несколько часов в больницу пробираются бандиты, чтобы забрать своего сообщника и выяснить, куда он спрятал бриллианты, а потом убить. Девушке и грабителю предстоит объединить свои усилия и оказать сопротивление головорезам.-Доп. информация: перевод Веры Смирновой, текст читают Елена Солодилина, Павел Кипнис

-Качество видео: WEB-DLRip
Формат видео: AVI
Видео: XviD, 720x400 (16:9), 23,976 fps, ~1795 kbps avg, 0.26 bit/pixel
Аудио: 48 kHz, AC3 Dolby Digital, 2 ch, 192 kbps Ru
Аудио 2: 48 kHz, AC3 Dolby Digital, 6 ch, 384 kbps En

MediaInfo

Общее
Полное имя : D:\AVI\Хладнокровная_2012.avi
Формат : AVI
Формат/Информация : Audio Video Interleave
Размер файла : 1,44 Гбайт
Продолжительность : 1 ч. 26 м.
Общий поток : 2385 Кбит/сек
Программа кодирования : VirtualDubMod 1.5.10.3 | www.virtualdub-fr.org || (build 2550/release)
Библиотека кодирования : VirtualDubMod build 2550/release
Видео
Идентификатор : 0
Формат : MPEG-4 Visual
Профиль формата : Advanced [email protected]
Параметр BVOP формата : 1
Параметр QPel формата : Нет
Параметр GMC формата : Без точки перехода
Параметр матрицы формата : Default (MPEG)
Идентификатор кодека : XVID
Идентификатор кодека/Подсказка : XviD
Продолжительность : 1 ч. 26 м.
Битрейт : 1795 Кбит/сек
Ширина : 720 пикселей
Высота : 400 пикселей
Соотношение сторон : 16:9
Частота кадров : 23,976 кадра/сек
Цветовое пространство : YUV
Субдискретизация насыщенности : 4:2:0
Битовая глубина : 8 бит
Тип развёртки : Прогрессивная
Метод сжатия : С потерями
Бит/(Пиксели*Кадры) : 0.260
Размер потока : 1,08 Гбайт (75%)
Библиотека кодирования : XviD 64
Аудио #1
Идентификатор : 1
Формат : AC-3
Формат/Информация : Audio Coding 3
Расширение режима : CM (complete main)
Параметр Endianness формата : Big
Идентификатор кодека : 2000
Продолжительность : 1 ч. 26 м.
Вид битрейта : Постоянный
Битрейт : 192 Кбит/сек
Каналы : 2 канала
Расположение каналов : Front: L R
Частота : 48,0 КГц
Битовая глубина : 16 бит
Метод сжатия : С потерями
Размер потока : 118 Мбайт (8%)
Выравнивание : Разделение по промежуткам
Продолжительность промежутка : 42 мс. (1,00 видеокадр)
Время предзагрузки промежутка : 500 мс.
Аудио #2
Идентификатор : 2
Формат : AC-3
Формат/Информация : Audio Coding 3
Расширение режима : CM (complete main)
Параметр Endianness формата : Big
Идентификатор кодека : 2000
Продолжительность : 1 ч. 26 м.
Вид битрейта : Постоянный
Битрейт : 384 Кбит/сек
Каналы : 6 каналов
Расположение каналов : Front: L C R, Side: L R, LFE
Частота : 48,0 КГц
Битовая глубина : 16 бит
Метод сжатия : С потерями
Размер потока : 237 Мбайт (16%)
Выравнивание : Разделение по промежуткам
Продолжительность промежутка : 42 мс. (1,00 видеокадр)
Время предзагрузки промежутка : 500 мс.

Скриншоты

Яндекс.Метрика
Рейтинг@Mail.ru