[ Сегодня на трекере фрилич! Идет свободное скачивание без начисления Download ]

Синдром Петрушки (Елена Хазанова) [2015 г., драма, WEB-DL, 720p]

 

Создавать темы 10-Окт-2016 04:23

-Синдром Петрушки-- Производство: Россия, Швейцария, Германия
Режиссер: Елена Хазанова
Жанр: драма
Год выпуска: 2015 г.
Продолжительность: 01:37:50Российская премьера: 5 ноября 2015, «Экспонента»
В ролях: Евгений Миронов, Чулпан Хаматова, Мераб Нинидзе, Зураб Кипшидзе, Александр Кузнецов, Алина Гвасалия, Алексей Любимов, Владимир Селезнев, Юлия Марченко, Эра Зиганшина-Описание: Петр страстно любит свою жену Лизу и фанатично предан своей работе. Он создает марионеток. Главным его шедевром становится точная копия Лизы. Он одержим своим творением, грань между вымыслом и реальностью, куклой и живой женщиной стирается в его воображении. Ведь самая увлекательная игрушка — это чужая жизнь…-Сэмпл КиноПоиск
Качество видео: WEB-DL
Контейнер: MKV
Стандарт разрешения: 720p
Видео кодек: MPEG4 AVC
Аудио кодек: AC3
Видео: 4000 Кбит/с, [email protected]/* */, 25,000 кадров/сек
Аудио: АС3, 6 ch, 384 Кбит/с, 48,0 КГцCубтитры: отсутствуют

Награды

Кинотавр, 2015 год
Победитель (1):
Приз имени Микаэла Таривердиева за лучшую музыку к фильму
Номинации (1):
Главный приз

Рецензия

«Сначала он из меня делает куклу, а потом из куклы делает меня»Признаюсь, я совсем не читал произведения Дины Рубиной. Решил написать рецензию, чтобы защитить фильм — перед просмотром в кинотеатре зашёл на YouTube, посмотрел трейлер и не увидел ни одного положительного комментария. Быть может, заходили его посмотреть, кроме меня, лишь любители Трансформеров и Голодных игр — этот вопрос остаётся открытым. Ну да ладно..Лично мне показалось, что фильм выгодно отличается от многих других, пусть тоже достойных, но просто стилистически и эмоционально других российских картин.Перед нами нет оригинального сюжета. Есть смесь двух сюжетов — сюжета про Пигмалиона, влюбившегося в созданную им статую Галатеи и сюжета, взятого из сказок Гофмана.Перенесена вся история в современный мир, но всё же мир вне времени. В кадре появляются автомобиль, холодильник и не более. Других атрибутов современного мира нет. Такая история могла произойти где угодно и когда угодно.В сценарии умело переплетены сюрреализм, сказочность и драматизм. Семейная легенда, проклятие, наложенное на главную героиню, Лизу (Чулпан Хаматова), тесно связано с профессией главного героя, кукольщика Петра (Евгений Миронов). Это человек, который в своей жизни любит лишь кукол. Трагизм ситуации в том, что по его мнению любой человек — это кукла, которой он может управлять. И его любимая жена — его главная кукла, без которой он не представляет жизни. Но он ошибается, человек живой, его нельзя подчинить себе, управлять, как марионеткой. Это, к сожалению, часто проявляется и в нашем обществе.Об остальном. В фильме звучит потрясающая музыка, тонкая, проникновенная, которая как нельзя кстати подходит общей атмосфере фильма. Отдельное спасибо за сцену с куклами, пересказывающую фамильную легенду, она сделана замечательно. И за все сцены, где Чулпан играет главную куклу фильма, такое я видел не часто. И, разумеется за блестящую игру всех актёров — Миронов показал одержимость на грани с безумием, Хаматова — доверчивость, непосредственность, отчаяние.Спасибо за то, что осуществление таких проектов возможно в нашей стране.10 из 10

Media Info

Общее
Уникальный идентификатор : 188312574840629976923075390002285810756 (0x8DABAEC40D6E2C14A3C495CD5E689444)
Полное имя : J:\Синдром Петрушки\Sindrom Petrushki.2015.WEB-DL.720p.[pirat.ca].mkv
Формат : Matroska
Версия формата : Version 4 / Version 2
Размер файла : 3,05 Гбайт
Продолжительность : 1 ч. 37 м.
Общий поток : 4469 Кбит/сек
Дата кодирования : UTC 2015-12-04 23:13:36
Программа кодирования : mkvmerge v8.3.0 ('Over the Horizon') 64bit
Библиотека кодирования : libebml v1.3.1 + libmatroska v1.4.2Видео
Идентификатор : 1
Формат : AVC
Формат/Информация : Advanced Video Codec
Профиль формата : [email protected]/* */
Параметр CABAC формата : Нет
Параметр ReFrames формата : 2 кадра
Идентификатор кодека : V_MPEG4/ISO/AVC
Продолжительность : 1 ч. 37 м.
Битрейт : 4083 Кбит/сек
Ширина : 960 пикселей
Высота : 534 пикселя
Соотношение сторон : 2,40:1
Режим частоты кадров : Постоянный
Частота кадров : 25,000 кадров/сек
Цветовое пространство : YUV
Субдискретизация насыщенности : 4:2:0
Битовая глубина : 8 бит
Тип развёртки : Прогрессивная
Бит/(Пиксели*Кадры) : 0.319
Размер потока : 2,79 Гбайт (91%)
Язык : English
Default : Да
Forced : Нет
Цветовой диапазон : Limited
Основные цвета : BT.709
Характеристики трансфера : BT.709
Коэффициенты матрицы : BT.709Аудио
Идентификатор : 2
Формат : AC-3
Формат/Информация : Audio Coding 3
Расширение режима : CM (complete main)
Параметр Endianness формата : Big
Идентификатор кодека : A_AC3
Продолжительность : 1 ч. 37 м.
Вид битрейта : Постоянный
Битрейт : 384 Кбит/сек
Каналы : 6 каналов
Расположение каналов : Front: L C R, Side: L R, LFE
Частота : 48,0 КГц
Частота кадров : 31,250 кадров/сек (1536 spf)
Метод сжатия : С потерями
Размер потока : 269 Мбайт (9%)
Язык : Russian
Default : Да
Forced : НетМеню
00:00:00.000 : en:Глава 1
00:05:16.000 : en:Глава 2
00:11:12.000 : en:Глава 3
00:16:27.000 : en:Глава 4
00:22:05.000 : en:Глава 5
00:27:36.000 : en:Глава 6
00:33:10.000 : en:Глава 7
00:39:05.000 : en:Глава 8
00:44:24.000 : en:Глава 9
00:49:25.000 : en:Глава 10
00:55:22.000 : en:Глава 11
01:00:44.000 : en:Глава 12
01:05:54.000 : en:Глава 13
01:11:15.000 : en:Глава 14
01:17:43.000 : en:Глава 15
01:23:12.000 : en:Глава 16
01:29:43.000 : en:Глава 17

Скриншот c названием фильма

Скриншоты

-Трейлер
Яндекс.Метрика
Рейтинг@Mail.ru