Мэри Ком / Mary Kom (Омунг Кумар / Omung Kumar) [2014 г., драма, биография, спорт, HDRip] MVO Sub (Rus)

 

Создавать темы 07-Окт-2016 02:59

-Мэри Ком / Mary Kom-- Производство: Индия, SLB Films Pvt. Ltd., Viacom18 Motion Pictures
Год выпуска: 2014 г.
Жанр: драма, биография, спорт
Продолжительность: 02:01:07Мировая премьера: 4 сентября 2014
Перевод: Любительский (многоголосый, закадровый) [ICG]
Режиссер: Омунг Кумар / Omung Kumar-В ролях: Приянка Чопра, Захари Соффин, Даршан Кумар, Сунил Дхапа, Лин Лайшрам-Описание: Между первым и последним ударом боксерского гонга — или нокаут, или пояс чемпиона. Помни, ради чего ты выходишь на ринг. Отныне твой мир имеет форму квадрата, и в этом мире есть свои правила и условия. Условие первое — стремление. Нет воли — нет результата. Второе — верность. Всегда будь предана боксу. Отдай ему все: свое время, свое счастье, всю себя. И, самое главное, не жди пощады. На ринге тебя никто не будет жалеть, и ты никого не жалей…Реальная история пятикратной чемпионки мира по боксу, живой легенды, известной миру как Мэри Ком.-
Качество видео: HDRip
Контейнер: AVI
Видео кодек: XviD
Аудио кодек: AC3
Видео: 720x304 (2.37:1), 24.000 fps, XviD MPEG-4 ~1685 kbps avg, 0.32 bit/pixel
Аудио: 48 kHz, AC3 Dolby Digital, 3/2 (L,C,R,l,r) + LFE ch, ~640 kbps
Cубтитры: русские
Формат субтитров: softsub (SRT)
Доп. информация о субтитрах: внешние: полные, на песни

Рецензия

Мэри Ком — героиня нашего времениВообще я люблю бокс, особенно женский, который не такой жестокий, как мужской. Но, к моему стыду, о Мэри Ком я почти ничего не знала. А ведь Мэри — героиня нашего времени: будучи домохозяйкой и матерью двух (а теперь уже трех) детей, она смогла стать пятикратной чемпионкой мира по боксу, и это еще совсем не ее предел.Очень правильно, что индийцы снимают художественные биографические фильмы о своих выдающихся спортсменах, и что бы ни говорили те, кто не любит индийское кино, делают это индийцы очень хорошо: как на одном дыхании я смотрела «Беги, Милка, беги», так на одном дыхании я смотрела и «Мэри Ком». Оба фильма очень сильные и мотивирующие.Кроме раскрытия истории непростого пути Мэри Ком от победы к победе, фильм также интересен тем, что дает заглянуть в жизнь и культуру народа манипури, о котором мало знают даже сами индийцы. Для меня это было открытие: насколько разными культурно и антропологически бывают индийцы. Приянке пришлось изменить свои черты лица, чтобы стать похожей на манипури, однако, если честно, в фильме это мало заметно.Что же касается актеров.Приянка Чопра — Мэри Ком — меня очень удивила: она очень хорошо поработала над собой как физически (очень непросто стать боксером, пусть даже на экране), так и в плане актерского мастерства. Она очень хорошо сыграла как бойкую и бесстрашную девушку, мечтающую стать великим боксером, так и любящую жену и заботливую мать. Честно говоря, не питала к Приянке особой любви до просмотра этого фильма. Теперь же я ее очень уважаю, даже не представляю, кто бы мог справиться с этой ролью лучше.Даршан Кумар — Онлер — тоже сыграл очень хорошо. Не видела его раньше, но надеюсь, что это будет не последний фильм с его участием, просмотренный мною. И если Приянке пришлось пройти через тяжелые физические тренировки ради своей роли, то Даршану ради роли пришлось сильно похудеть, а это тоже непросто. Но больше, чем сам Даршан, меня удивил его герой Онлер. Вот смотришь на него и думаешь: «Ну кто сказал, что идеальных мужчин не бывает? Вот же он!». Добрый, любящий, понимающий и поддерживающий. Даршан как-то говорил в интервью, что после выхода фильма к нему стали подходить женщины на улице и говорить, что его герой — идеал, который бы они хотели видеть в своем муже. И я с ними полностью согласна.Еще хотелось бы отметить актерскую игру Сунила Тхапу (тренер Сингх), а также Робина Даса (отец Мэри Тонпа Ком), которые поддерживали боевой дух фильма.Мне также понравился музыкальный альбом фильма, где одну из песен исполняет сама Приянка, да еще и частично на манипури. Мне особенно понравилась песня «Ziddi Dil», что значит «упрямое сердце» — очень мотивирующая песня.В общем, Мэри Ком — это образец для подражания не только для спортсменов, но и для каждой простой девушки и женщины. Нам всем стоит поучится у нее смелости, стойкости и силе духа. А фильм — прекрасное тому подтверждение. Поэтому, смотреть обязательно!10 из 10

Media Info

Общее
Полное имя : E:\Мэри Ком\Mary Kom.2014.HDRip.Rus.ICG.[pirat.ca]\Mary Kom.2014.HDRip.Rus.ICG.[pirat.ca].avi
Формат : AVI
Формат/Информация : Audio Video Interleave
Размер файла : 1,98 Гбайт
Продолжительность : 2 ч. 1 м.
Общий поток : 2335 Кбит/сек
Программа кодирования : VirtualDubMod 1.5.10.3 (build 2550/release)
Библиотека кодирования : VirtualDubMod build 2550/releaseВидео
Идентификатор : 0
Формат : MPEG-4 Visual
Профиль формата : Advanced [email protected]/* */
Параметр BVOP формата : 1
Параметр QPel формата : Нет
Параметр GMC формата : Без точки перехода
Параметр матрицы формата : Default (MPEG)
Идентификатор кодека : XVID
Идентификатор кодека/Подсказка : XviD
Продолжительность : 2 ч. 1 м.
Битрейт : 1686 Кбит/сек
Ширина : 720 пикселей
Высота : 304 пикселя
Соотношение сторон : 2,35:1
Частота кадров : 24,000 кадра/сек
Цветовое пространство : YUV
Субдискретизация насыщенности : 4:2:0
Битовая глубина : 8 бит
Тип развёртки : Прогрессивная
Метод сжатия : С потерями
Бит/(Пиксели*Кадры) : 0.321
Размер потока : 1,43 Гбайт (72%)
Библиотека кодирования : XviD 64Аудио
Идентификатор : 1
Формат : AC-3
Формат/Информация : Audio Coding 3
Расширение режима : CM (complete main)
Параметр Endianness формата : Big
Идентификатор кодека : 2000
Продолжительность : 2 ч. 1 м.
Вид битрейта : Постоянный
Битрейт : 640 Кбит/сек
Каналы : 6 каналов
Расположение каналов : Front: L C R, Side: L R, LFE
Частота : 48,0 КГц
Частота кадров : 31,250 кадров/сек (1536 spf)
Метод сжатия : С потерями
Размер потока : 554 Мбайт (27%)
Выравнивание : Разделение по промежуткам
Продолжительность промежутка : 42 мс. (1,00 видеокадр)
Время предзагрузки промежутка : 500 мс.

Скриншот c названием фильма

Скриншоты

Трейлер
Яндекс.Метрика
Рейтинг@Mail.ru