[ Сегодня на трекере фрилич! Идет свободное скачивание без начисления Download ]

Полтора шпиона / Central Intelligence (Роусон Маршалл Тёрбер / Rawson Marshall Thurber) [2016 г., боевик, комедия, криминал, BDRemux, 1080p] Dub + Dub Sub (Rus, Eng) + Original (Eng)

 

Создавать темы 06-Окт-2016 07:25

-Полтора шпиона / Central Intelligence-- Производство: США / New Line Cinema, Bluegrass Films, Principato-Young Entertainment
Год выпуска: 2016 г.
Жанр: боевик, комедия, криминал
Продолжительность: 01:47:37Мировая премьера: 10 июня 2016
Российская премьера: 7 июля 2016, «UPI»
Перевод: Профессиональный (полное дублирование) [Blu-Ray CEE]
Перевод 2: Профессиональный (полное дублирование) [Blu-Ray CEE]
Оригинальный аудиопоток: английскийРежиссер: Роусон Маршалл Тёрбер / Rawson Marshall Thurber-В ролях: Дуэйн Джонсон, Кевин Харт, Эми Райан, Даниэль Николет, Джейсон Бейтмен, Аарон Пол, Райан Хансен, Тим Гриффин, Тимоти Джон Смит-Описание: От лайка в соцсети до спасения мира — один шаг. Сегодня ты френдишь бывшего одноклассника, а завтра — он тащит тебя под пули. Кто ж знал, что заядлый любитель пончиков превратится в похожего на скалу супершпиона.-
Кодек: MPEG-4
Качество: BDRemux 1080p
Видео: 1920x1080, 25.4 Mbit/s, 23.976 fps
Аудио #01: 48 kHz, DTS, 5.1, 768 Kbps | Дублированный | Лицензия |
Аудио #02: 48 kHz, AC3, 5.1, 448 Kbps | Дублированный | Лицензия |
Аудио #03: 48 kHz, DTS-HD MA, 5.1, 3712 kbps | Оригинал |
Субтитры: Русские (full,forced), английские

Media Info

General
Unique ID : 179911690753828498107719777960416602418 (0x8759BB33A582BE0FBB8208217DD56932)
Complete name : Central.Intelligence.2016.D.BDREMUX.1080p.ExKinoRay
Format : Matroska
Format version : Version 4 / Version 2
File size : 22.8 GiB
Duration : 1 h 47 min
Overall bit rate mode : Variable
Overall bit rate : 30.3 Mb/s
Movie name : build by ***селезень***
Encoded date : UTC 2016-10-04 19:48:20
Writing application : mkvmerge v8.3.0 ('Over the Horizon') 64bit
Writing library : libebml v1.3.1 + libmatroska v1.4.2Video
ID : 1
Format : AVC
Format/Info : Advanced Video Codec
Format profile : [email protected]/* */
Format settings, CABAC : Yes
Format settings, ReFrames : 2 frames
Codec ID : V_MPEG4/ISO/AVC
Duration : 1 h 47 min
Bit rate mode : Variable
Bit rate : 25.4 Mb/s
Width : 1 920 pixels
Height : 1 080 pixels
Display aspect ratio : 16:9
Frame rate mode : Constant
Frame rate : 23.976 (24000/1001) FPS
Color space : YUV
Chroma subsampling : 4:2:0
Bit depth : 8 bits
Scan type : Progressive
Bits/(Pixel*Frame) : 0.511
Stream size : 19.1 GiB (84%)
Title : build by ***селезень***
Language : English
Default : Yes
Forced : NoAudio #1
ID : 2
Format : DTS
Format/Info : Digital Theater Systems
Mode : 16
Format settings, Endianness : Big
Codec ID : A_DTS
Duration : 1 h 47 min
Bit rate mode : Constant
Bit rate : 768 kb/s
Channel(s) : 6 channels
Channel positions : Front: L C R, Side: L R, LFE
Sampling rate : 48.0 kHz
Frame rate : 93.750 FPS (512 spf)
Bit depth : 24 bits
Compression mode : Lossy
Stream size : 591 MiB (3%)
Title : Dub-DTS [License]
Language : Russian
Default : Yes
Forced : NoAudio #2
ID : 3
Format : AC-3
Format/Info : Audio Coding 3
Mode extension : CM (complete main)
Format settings, Endianness : Big
Codec ID : A_AC3
Duration : 1 h 47 min
Bit rate mode : Constant
Bit rate : 448 kb/s
Channel(s) : 6 channels
Channel positions : Front: L C R, Side: L R, LFE
Sampling rate : 48.0 kHz
Frame rate : 31.250 FPS (1536 spf)
Compression mode : Lossy
Stream size : 345 MiB (1%)
Title : Dub-AC3 [License]
Language : Russian
Default : No
Forced : NoAudio #3
ID : 4
Format : DTS
Format/Info : Digital Theater Systems
Format profile : MA / Core
Mode : 16
Format settings, Endianness : Big
Codec ID : A_DTS
Duration : 1 h 47 min
Bit rate mode : Variable / Constant
Bit rate : 3 712 kb/s / 1 509 kb/s
Channel(s) : 6 channels
Channel positions : Front: L C R, Side: L R, LFE
Sampling rate : 48.0 kHz
Frame rate : 93.750 FPS (512 spf)
Bit depth : 24 bits
Compression mode : Lossless / Lossy
Stream size : 2.79 GiB (12%)
Title : Original
Language : English
Default : No
Forced : NoText #1
ID : 5
Format : UTF-8
Codec ID : S_TEXT/UTF8
Codec ID/Info : UTF-8 Plain Text
Duration : 1 h 38 min
Bit rate : 4 b/s
Count of elements : 62
Stream size : 3.08 KiB (0%)
Title : Forced
Language : Russian
Default : Yes
Forced : NoText #2
ID : 6
Format : UTF-8
Codec ID : S_TEXT/UTF8
Codec ID/Info : UTF-8 Plain Text
Duration : 1 h 46 min
Bit rate : 138 b/s
Count of elements : 2048
Stream size : 108 KiB (0%)
Title : Full
Language : Russian
Default : No
Forced : NoText #3
ID : 7
Format : UTF-8
Codec ID : S_TEXT/UTF8
Codec ID/Info : UTF-8 Plain Text
Duration : 1 h 45 min
Bit rate : 83 b/s
Count of elements : 2273
Stream size : 64.6 KiB (0%)
Title : Full
Language : English
Default : No
Forced : NoMenu
00:00:00.000 : en:00:00:00.000
00:09:32.238 : en:00:09:32.238
00:21:47.848 : en:00:21:47.848
00:32:26.861 : en:00:32:26.861
00:47:37.104 : en:00:47:37.104
00:57:28.528 : en:00:57:28.528
01:03:15.750 : en:01:03:15.750
01:17:23.222 : en:01:17:23.222
01:26:11.541 : en:01:26:11.541
01:36:29.992 : en:01:36:29.992
01:48:21.411 : en:01:48:21.411

Скриншоты

Яндекс.Метрика
Рейтинг@Mail.ru