[ Сегодня на трекере фрилич! Идет свободное скачивание без начисления Download ]

Фантазм 5 / Phantasm: Ravager (Дэвид Хартман / David Hartman) [2016 г., ужасы, фэнтези, WEB-DL 1080p] VO [Хихикающий доктор] + Original (Eng)

 

Создавать темы 06-Окт-2016 07:23

--Фантазм 5 / Phantasm: Ravager-- Производство: США, Silver Sphere Corporation
Год выпуска: 2016 г.
Жанр: ужасы, фэнтези
Продолжительность: 01:25:28--Мировая премьера: 25 сентября 2016--Перевод: Любительский (одноголосый, закадровый) [Хихикающий доктор]
Оригинальный аудиопоток: английский--Режиссер: Дэвид Хартман / David Hartman--В ролях: Рэджи Бэннистер, А. Майкл Болдуин, Кэти Лестер, Билл Торнбер, Энгус Скримм, Дэниэл Швайгер, Дэниэл Робак, Джей Олива, Глория Линн Генри, Кин Окада--Описание: Заключительная серия Фантазма, в которой Реджи и Майк сомневаются, что все, что с ними происходило, было на самом деле и все это просто игры разума. Но как это может происходить одновременно у всех в голове...-- --Качество видео: WEB-DL 1080p
Контейнер: MKV
Видео кодек: AVC/H.264
Аудио кодек: AC3
Видео: AVC, 1920x1080, 5 066 kbps, 23,976 fps, 0.102 bpp
Аудио 1: 48 kHz, AC3, 2 ch, ~192.00 kbps RUS
Аудио 2: 48 kHz, AC3 Dolby Digital, 3/2 (L,C,R,l,r) + LFE ch, ~384 kbps ENG
Cубтитры: отсутствуют

Media Info

Общее
Уникальный идентификатор : 194362754454507948578020671381182645961 (0x9238E7A6B94597DEA7EEBBB51FB086C9)
Полное имя : H:\Torrent2\Phantasm.Ravager.2016.1080p.WEB-DL.H264.mkv
Формат : Matroska
Версия формата : Version 4 / Version 2
Размер файла : 3,44 Гбайт
Продолжительность : 1 ч. 25 м.
Общий поток : 5756 Кбит/сек
Дата кодирования : UTC 2016-10-05 06:49:33
Программа кодирования : mkvmerge v6.9.1 ('Blue Panther') 64bit built on Apr 18 2014 18:23:38
Библиотека кодирования : libebml v1.3.0 + libmatroska v1.4.1Видео
Идентификатор : 1
Формат : AVC
Формат/Информация : Advanced Video Codec
Профиль формата : [email protected]/* */
Параметр CABAC формата : Да
Параметр ReFrames формата : 4 кадра
Идентификатор кодека : V_MPEG4/ISO/AVC
Продолжительность : 1 ч. 25 м.
Битрейт : 5066 Кбит/сек
Ширина : 1920 пикселей
Высота : 1080 пикселей
Соотношение сторон : 16:9
Режим частоты кадров : Постоянный
Частота кадров : 23,976 кадра/сек
Цветовое пространство : YUV
Субдискретизация насыщенности : 4:2:0
Битовая глубина : 8 бит
Тип развёртки : Прогрессивная
Бит/(Пиксели*Кадры) : 0.102
Размер потока : 3,02 Гбайт (88%)
Язык : English
Default : Да
Forced : Нет
Цветовой диапазон : Limited
Основные цвета : BT.709
Характеристики трансфера : BT.709
Коэффициенты матрицы : BT.709Аудио #1
Идентификатор : 2
Формат : AC-3
Формат/Информация : Audio Coding 3
Расширение режима : CM (complete main)
Параметр Endianness формата : Big
Идентификатор кодека : A_AC3
Продолжительность : 1 ч. 25 м.
Вид битрейта : Постоянный
Битрейт : 192 Кбит/сек
Каналы : 2 канала
Расположение каналов : Front: L R
Частота : 48,0 КГц
Частота кадров : 31,250 кадров/сек (1536 spf)
Метод сжатия : С потерями
Размер потока : 117 Мбайт (3%)
Заголовок : Xixidoktor
Язык : Russian
Default : Да
Forced : НетАудио #2
Идентификатор : 3
Формат : AC-3
Формат/Информация : Audio Coding 3
Расширение режима : CM (complete main)
Параметр Endianness формата : Big
Идентификатор кодека : A_AC3
Продолжительность : 1 ч. 25 м.
Вид битрейта : Постоянный
Битрейт : 384 Кбит/сек
Каналы : 6 каналов
Расположение каналов : Front: L C R, Side: L R, LFE
Частота : 48,0 КГц
Частота кадров : 31,250 кадров/сек (1536 spf)
Метод сжатия : С потерями
Размер потока : 235 Мбайт (7%)
Заголовок : original
Язык : English
Default : Нет
Forced : НетМеню
00:00:00.000 : en:1
00:07:56.518 : en:2
00:16:56.432 : en:3
00:23:19.481 : en:4
00:31:53.912 : en:5
00:39:34.163 : en:6
00:50:44.416 : en:7
01:01:30.019 : en:8
01:10:00.487 : en:9
01:17:07.121 : en:10

Скриншоты

Трейлер
Яндекс.Метрика
Рейтинг@Mail.ru