Как я теперь люблю / How I Live Now (Кевин МакДональд / Kevin Macdonald) [2013 г., фэнтези, драма, приключения, WEB-DL] VO

 

Создавать темы 07-Янв-2014 03:41

-Как я теперь люблю / How I Live Now-- Производство: Великобритания
Год выпуска: 2013 г.
Жанр: фэнтези, драма, приключения
Продолжительность: 01:41:12
Мировая премьера: 10 сентября 2013
Российская премьера: 9 января 2014
Перевод: Любительский (одноголосый, закадровый) [ Doktor Joker]
Режиссер: Кевин МакДональд / Kevin Macdonald-В ролях: Сирша Ронан, Том Холлэнд, Джордж МакКэй, Харли Бёрд, Дэнни МакЭвой, Анна Чэнселлор, Джонатан Рагман, Кори Джонсон, Даррен Морфитт, Стелла Гонет-Описание: Действие разворачивается в недалеком будущем. Пятнадцатилетняя Дэйзи приезжает из Нью-Йорка в Лондон к тете с дядей. И влюбляется без памяти в своего кузена Эдмонда. Но на пути первой любви встает внезапно разворачивающаяся Третья Мировая Война.-Качество видео: WEB-DL
Контейнер: AVI
Видео кодек: XviD
Аудио кодек: AC3
Видео: 720*384 pixel, 1668 kbps, 23,976 fps, 0.252 bit/pixel
Аудио: 384 kbps, 6 ch, 48,0 kHz
Cубтитры: отсутствуют-
ТРЕЙЛЕР

Media Info

Общее
Полное имя :How I Live Now 2013[pirat.ca] WEB-DLRip.avi
Формат : AVI
Формат/Информация : Audio Video Interleave
Размер файла : 1,46 Гбайт
Продолжительность : 1 ч. 41 м.
Общий поток : 2061 Кбит/сек
Программа кодирования : VirtualDubMod 1.5.10.2 (build 2540/release)
Библиотека кодирования : VirtualDubMod build 2540/release
Видео
Идентификатор : 0
Формат : MPEG-4 Visual
Профиль формата : Advanced [email protected]
Параметр BVOP формата : 2
Параметр QPel формата : Нет
Параметр GMC формата : Без точки перехода
Параметр матрицы формата : Выборочная
Идентификатор кодека : XVID
Идентификатор кодека/Подсказка : XviD
Продолжительность : 1 ч. 41 м.
Битрейт : 1668 Кбит/сек
Ширина : 720 пикселей
Высота : 384 пикселя
Соотношение сторон : 1,85:1
Частота кадров : 23,976 кадра/сек
Цветовое пространство : YUV
Субдискретизация насыщенности : 4:2:0
Битовая глубина : 8 бит
Тип развёртки : Прогрессивная
Метод сжатия : С потерями
Бит/(Пиксели*Кадры) : 0.252
Размер потока : 1,18 Гбайт (81%)
Библиотека кодирования : XviD 1.2.1 (UTC 2008-12-04)
Аудио
Идентификатор : 1
Формат : AC-3
Формат/Информация : Audio Coding 3
Расширение режима : CM (complete main)
Параметр Endianness формата : Big
Идентификатор кодека : 2000
Продолжительность : 1 ч. 41 м.
Вид битрейта : Постоянный
Битрейт : 384 Кбит/сек
Каналы : 6 каналов
Расположение каналов : Front: L C R, Side: L R, LFE
Частота : 48,0 КГц
Битовая глубина : 16 бит
Метод сжатия : С потерями
Размер потока : 278 Мбайт (19%)
Выравнивание : Разделение по промежуткам
Продолжительность промежутка : 42 мс. (1,00 видеокадр)
Время предзагрузки промежутка : 500 мс.

Скриншот c названием фильма

Скриншоты

Яндекс.Метрика
Рейтинг@Mail.ru