[ Сегодня на трекере фрилич! Идет свободное скачивание без начисления Download ]

И гаснет свет... / Lights Out (Дэвид Ф. Сандберг / David F. Sandberg) [2016 г., ужасы, триллер, WEB-DLRip] Dub [Чистый звук]

 

Создавать темы 04-Окт-2016 08:38

--И гаснет свет... / Lights Out--«You were right to be afraid of the dark»-- Производство: США, New Line Cinema
Год выпуска: 2016 г.
Жанр: ужасы, триллер
Продолжительность: 01:21:39--Мировая премьера: 8 июня 2016
Российская премьера: 21 июля 2016, «Каро-Премьер»--Перевод: Профессиональный (полное дублирование) [Чистый звук]--Режиссер: Дэвид Ф. Сандберг / David F. Sandberg--В ролях: Тереза Палмер, Гэбриел Бейтман, Александр ДиПерсиа, Билли Бёрк, Мария Белло, Алисия Вела-Бэйли, Энди Ошо, Роландо Бойс, Мария Расселл, Элизабет Пан--Описание: Когда Ребекка покинула родной дом, она думала, что её детские страхи остались позади. Ребенком она никогда не была уверена, что реально, а что нет, когда гас свет, и теперь её младший брат Мартин переживает те же необъяснимые и ужасные события, которые когда-то испытывали на прочность её рассудок и угрожали её безопасности. Пугающее нечто, таинственным образом привязанное к их матери Софи, появилось вновь. Но на этот раз Ребекка подбирается к разгадке истины, и уже не остается сомнений в том, что их жизни в опасности, как только будет погашен свет.-- --Качество видео: WEB-DLRip
Контейнер: AVI
Видео кодек: XviD
Аудио кодек: AC3
Видео: 720x304 (2.37:1), 23.976 fps, XviD build 50 ~1998 kbps avg, 0.38 bit/pixel
Аудио: 48 kHz, AC3 Dolby Digital, 2/0 (L,R) ch, ~384 kbps
Cубтитры: отсутствуют.

Media Info

Общее
Полное имя : H:\Torrent2\I.GasTet.Svet.2O16.D.WEB-DLRip.14OOMB.avi
Формат : AVI
Формат/Информация : Audio Video Interleave
Размер файла : 1,36 Гбайт
Продолжительность : 1 ч. 21 м.
Общий поток : 2392 Кбит/сек
Программа кодирования : VirtualDubMod 1.5.10.2 (build 2540/release)
Библиотека кодирования : VirtualDubMod build 2540/releaseВидео
Идентификатор : 0
Формат : MPEG-4 Visual
Профиль формата : Advanced [email protected]/* */
Параметр BVOP формата : 2
Параметр QPel формата : Нет
Параметр GMC формата : Без точки перехода
Параметр матрицы формата : Выборочная
Идентификатор кодека : XVID
Идентификатор кодека/Подсказка : XviD
Продолжительность : 1 ч. 21 м.
Битрейт : 1998 Кбит/сек
Ширина : 720 пикселей
Высота : 304 пикселя
Соотношение сторон : 2,35:1
Частота кадров : 23,976 (24000/1001) кадра/сек
Цветовое пространство : YUV
Субдискретизация насыщенности : 4:2:0
Битовая глубина : 8 бит
Тип развёртки : Прогрессивная
Метод сжатия : С потерями
Бит/(Пиксели*Кадры) : 0.381
Размер потока : 1,14 Гбайт (84%)
Библиотека кодирования : XviD 1.2.1 (UTC 2008-12-04)Аудио
Идентификатор : 1
Формат : AC-3
Формат/Информация : Audio Coding 3
Расширение режима : CM (complete main)
Параметр Endianness формата : Big
Идентификатор кодека : 2000
Продолжительность : 1 ч. 21 м.
Вид битрейта : Постоянный
Битрейт : 384 Кбит/сек
Каналы : 2 канала
Расположение каналов : Front: L R
Частота : 48,0 КГц
Частота кадров : 31,250 кадров/сек (1536 spf)
Метод сжатия : С потерями
Размер потока : 224 Мбайт (16%)
Выравнивание : Разделение по промежуткам
Продолжительность промежутка : 42 мс. (1,00 видеокадр)
Время предзагрузки промежутка : 500 мс.

Скриншоты

ТрейлерПРИСУТСТВУЕТ РЕКЛАМА!
Яндекс.Метрика
Рейтинг@Mail.ru