Афера под прикрытием / The Infiltrator (Брэд Фурман / Brad Furman) [2016 г., триллер, драма, криминал, биография, HDRip] Dub [Звук с TS]

 

Создавать темы 01-Окт-2016 04:35

--Афера под прикрытием / The Infiltrator--«The true story of one man against the biggest drug cartel in history»-- Производство: Великобритания, Good Films
Год выпуска: 2016 г.
Жанр: триллер, драма, криминал, биография
Продолжительность: 02:07:00--Мировая премьера: 6 июля 2016
Российская премьера: 11 августа 2016, «Вольга»--Перевод: Профессиональный (полное дублирование) [Звук с TS]--Режиссер: Брэд Фурман / Brad Furman--В ролях: Брайан Крэнстон, Лиэнн Бест, Дэниэл Мейс, Том Вон-Лолор, Ниал Хэйес, Лара Дэкаро, Джульетт Обри, Олимпия Дукакис, Эми Райан, Джон Легуизамо--Описание: Федеральный агент Боб Мейзур, специалист по внедрению в преступные группировки, ставит себе целью раскрыть схему отмывания денег наркокартеля Пабло Эскобара. В одной команде со вспыльчивым оперативником Эмиром Абреу, а также начинающим агентом Кэти Эртс, исполняющей роль подставной невесты Боба, ему предстоит провернуть самую рискованную операцию под прикрытием в истории.-- --Качество видео: HDRip
Контейнер: AVI
Видео кодек: XviD
Аудио кодек: AC3
Видео: 720x304 (2.37:1), 23.976 fps, XviD build 50 ~1404 kbps avg, 0.27 bit/pixel
Аудио: 48 kHz, AC3 Dolby Digital, 2/0 (L,R) ch, ~128 kbpsCубтитры: отсутствуют.

Media Info

Общее
Полное имя : H:\Torrent2\The.Infiltrator.2016.Dt.HDRip.14OOMB.avi
Формат : AVI
Формат/Информация : Audio Video Interleave
Размер файла : 1,37 Гбайт
Продолжительность : 2 ч. 7 м.
Общий поток : 1542 Кбит/сек
Программа кодирования : VirtualDubMod 1.5.10.2 (build 2540/release)
Библиотека кодирования : VirtualDubMod build 2540/releaseВидео
Идентификатор : 0
Формат : MPEG-4 Visual
Профиль формата : Advanced [email protected]/* */
Параметр BVOP формата : 2
Параметр QPel формата : Нет
Параметр GMC формата : Без точки перехода
Параметр матрицы формата : Default (MPEG)
Идентификатор кодека : XVID
Идентификатор кодека/Подсказка : XviD
Продолжительность : 2 ч. 7 м.
Битрейт : 1404 Кбит/сек
Ширина : 720 пикселей
Высота : 304 пикселя
Соотношение сторон : 2,35:1
Частота кадров : 23,976 (24000/1001) кадра/сек
Цветовое пространство : YUV
Субдискретизация насыщенности : 4:2:0
Битовая глубина : 8 бит
Тип развёртки : Прогрессивная
Метод сжатия : С потерями
Бит/(Пиксели*Кадры) : 0.268
Размер потока : 1,25 Гбайт (91%)
Библиотека кодирования : XviD 1.2.1 (UTC 2008-12-04)Аудио
Идентификатор : 1
Формат : AC-3
Формат/Информация : Audio Coding 3
Расширение режима : CM (complete main)
Параметр Endianness формата : Big
Идентификатор кодека : 2000
Продолжительность : 2 ч. 7 м.
Вид битрейта : Постоянный
Битрейт : 128 Кбит/сек
Каналы : 2 канала
Расположение каналов : Front: L R
Частота : 48,0 КГц
Частота кадров : 31,250 кадров/сек (1536 spf)
Метод сжатия : С потерями
Размер потока : 116 Мбайт (8%)
Выравнивание : Разделение по промежуткам
Продолжительность промежутка : 42 мс. (1,00 видеокадр)
Время предзагрузки промежутка : 500 мс.

Скриншоты

ТрейлерПРИСУТСТВУЕТ РЕКЛАМА!
Яндекс.Метрика
Рейтинг@Mail.ru