[ Сегодня на трекере фрилич! Идет свободное скачивание без начисления Download ]

Теория Большого Взрыва / The Big Bang Theory / Сезон: 10 / Серии: 1-2 (?) (Марк Сендроуски / Mark Cendrowski, ...) [2016 г., ситуационная комедия, WEB-DL, 720p] VO (Кураж-Бамбей) + Original (Eng) + Sub (Eng) [Обновляемая]

 

Создавать темы 01-Окт-2016 04:34

-Теория Большого Взрыва / The Big Bang Theory
«Smart Is The New Sexy»
(10 сезон)
-- Производство: США | CBS
Жанр: ситуационная комедия
Год выпуска: 2016 г.
Продолжительность: 2x ~00:22:00Перевод: Профессиональный (одноголосый, закадровый) [Кураж-Бамбей]
Оригинальный аудиопоток: английскийРежиссер: Марк Сендроуски / Mark Cendrowski, Питер Чакос / Peter Chakos, ...-В ролях: Джим Парсонс, Джонни Галэки, Кейли Куоко-Суитинг, Саймон Хелберг, Кунал Нэйэр, Мелисса Рауш, Майем Биалик, Кевин Сасмэн, Кэрол Энн Сьюзи, Джон Росс Боуи-Описание: Два блестящих физика, Леонард и Шелдон, «великие умы», которые понимают, как «работает Вселенная». Но их гениальность ничуть не помогает им общаться с людьми, особенно с женщинами. Всё начинает меняться, когда напротив них поселяется красавица Пенни.
Когда Леонард и Шелдон встречают Пенни, Леонард сразу же начинает интересоваться ею. Он видит в общении с Пенни огромную перспективу, вплоть до любви, однако Шелдон понимает, что мечтам его друга не суждено сбыться.
Стоит также отметить пару странных друзей этих физиков: Воловиц, который любит употреблять фразы на разных языках, включая русский, и Раджеш Кутрапали, теряющий дар речи при виде женщин.- - -Качество видео: WEB-DL
Контейнер: MKV
Стандарт разрешения: 720p
Видео кодек: H.264/AVC
Аудио кодек: AC3
Видео: 1278x720 at 23.976 fps, ~4000 kbps avg
Аудио: Russian: 48 kHz, AC3, 3/2 (L,C,R,l,r) + LFE ch, ~384.00 kbps avg |Одноголосый закадровый, Кураж-Бамбей|
Аудио #2: English: 48 kHz, AC3, 3/2 (L,C,R,l,r) + LFE ch, ~384.00 kbps avgCубтитры: английские

Список серий

01. The Conjugal Conjecture / Супружеская гипотеза
02. The Military Miniaturization / Военная миниатюризация

Знаете ли вы, что...

• Фамилия Шелдона совпадает с фамилией известного американского физика Леона Нила Купера, лауреата Нобелевской премии по физике 1972 года, а фамилия Леонарда - с фамилией другого американского физика Роберта Хофстэдера, лауреата Нобелевской премии по физике 1961 года.
• Главные герои сериала названы именами Шелдон и Леонард в честь знаменитого актера и телепродюсера Шелдона Леонарда.
• В одной из серий в роли самого себя сыграл лауреат Нобелевской премии по физике 2006 года, Джордж Смут.
• В первоначальном сценарии не было персонажей Кутраппали и Воловица.
• При съемках 4 сезона Келли Куоко сломала ногу, катаясь на лошади. Так что в 5 и 6 серии 4 сезона она отсутствовала, а в других авторам пришлось выкручиваться, чтобы её гипс не попал в кадр. Поэтому в 7 серии её поставили за стойку барменом, а в 8 серии в кадре она всегда сидит, и гипс не видно. В традиционных заметках Чака Лорри, которые показываются в виде текста в конце каждой серии, это событие обыграно в шутливой форме, обязуя всех членов съемочной группы заранее согласовывать все свои травмоопасные действия — от поездок на лошадях до поз занятий сексом.
• Титульная песня написана канадской альтернативной рок-группой Barenaked Ladies. В сериале звучит всего один куплет, но 9 октября 2007 года был выпущен в продажу полный вариант песни (длиной 1 мин 45 сек).
• В каждой серии на ремне Говарда Воловица можно увидеть новую пряжку, связанную чаще всего с персонажами комиксов, фильмов, сериалов и т.д. (например, в одном из эпизодов - это летучая мышь, символ Бэтмена).
• Шелдон часто носит футболки с изображением или символикой героев комиксов из вселенной DC Comics: 1 серия 1-го сезона - Флэш, 2 серия 1-го сезона - Супермен, 5 серия 1-го сезона - Бэтмен, 8 серия 1-го сезона - Аквамен, 7 и 13 серии 1-го сезона - Зеленый Фонарь.
• В 13 серии 1 сезона главные герои выбирают четвертого члена команды Кубка Физиков, и Радж говорит: «Вы знаете, кто, видимо, очень умна? Девушка, которая играет в сериале «Блоссом» (1990-1995), - у нее докторская степень в нейробиологии.» Речь идет об актрисе Майем Биалик, которая в более поздних сезонах играет роль Эми Фары Фоулер.
• В начале 11 серии 3 сезона ('The Maternal Congruence') Леонард, Пенни и Шелдон смотрят фильм «Гринч - похититель рождества» (2000), и в этой же серии приезжает мама Леонарда - Кристин Барански - сыгравшая одну из главных ролей в вышеупомянутом фильме.
• В 16 серии 3 сезона на табличке судьи написано: «JUDGE J.KIRBY». Джек Кирби - американский писатель, художник и редактор комиксов, который в 1960-х годах совместно со Стэном Ли создаёт для Marvel Comics таких персонажей, как Халк, Фантастическая четвёрка и Люди Икс. Стэном Ли присутствует в 16 серии 3 сезона.
• В первоначальной версии пилотного эпизода сериала, главная женская роль принадлежала Аманде Уолш.

Media Info

Код:
Format : Matroska
Format version : Version 4 / Version 2
File size : 749 MiB
Duration : 21mn 45s
Overall bit rate mode : Variable
Overall bit rate : 4 810 Kbps
Movie name : The Big Bang Theory 10x01 (2016) - Release kmarats for HDCLUB
Encoded date : UTC 2016-09-23 06:01:30
Writing application : mkvmerge v9.4.2 ('So High') 64bit
Writing library : libebml v1.3.4 + libmatroska v1.4.5
DURATION : 00:21:45.536000000
NUMBER_OF_FRAMES : 40798
NUMBER_OF_BYTES : 62665728
_STATISTICS_WRITING_APP : mkvmerge v9.4.2 ('So High') 64bit
_STATISTICS_WRITING_DATE_UT : 2016-09-23 06:01:30
_STATISTICS_TAGS : BPS DURATION NUMBER_OF_FRAMES NUMBER_OF_BYTESVideo
ID : 1
Format : AVC
Format/Info : Advanced Video Codec
Format profile : [email protected]/* */
Format settings, CABAC : Yes
Format settings, ReFrames : 2 frames
Codec ID : V_MPEG4/ISO/AVC
Duration : 21mn 45s
Bit rate mode : Variable
Bit rate : 3 946 Kbps
Maximum bit rate : 768 Kbps
Width : 1 278 pixels
Height : 720 pixels
Display aspect ratio : 16:9
Frame rate mode : Constant
Frame rate : 23.976 fps
Original frame rate : 25.000 fps
Color space : YUV
Chroma subsampling : 4:2:0
Bit depth : 8 bits
Scan type : Progressive
Bits/(Pixel*Frame) : 0.179
Stream size : 614 MiB (82%)
Title : The Big Bang Theory 10x01 (2016) - Release kmarats for HDCLUB
Language : English
Default : Yes
Forced : NoAudio #1
ID : 2
Format : AC-3
Format/Info : Audio Coding 3
Mode extension : CM (complete main)
Format settings, Endianness : Big
Codec ID : A_AC3
Duration : 21mn 45s
Bit rate mode : Constant
Bit rate : 384 Kbps
Channel(s) : 6 channels
Channel positions : Front: L C R, Side: L R, LFE
Sampling rate : 48.0 KHz
Bit depth : 16 bits
Compression mode : Lossy
Stream size : 59.8 MiB (8%)
Title : Kuraj
Language : Russian
Default : Yes
Forced : NoAudio #2
ID : 3
Format : AC-3
Format/Info : Audio Coding 3
Mode extension : CM (complete main)
Format settings, Endianness : Big
Codec ID : A_AC3
Duration : 21mn 45s
Bit rate mode : Constant
Bit rate : 384 Kbps
Channel(s) : 6 channels
Channel positions : Front: L C R, Side: L R, LFE
Sampling rate : 48.0 KHz
Bit depth : 16 bits
Compression mode : Lossy
Stream size : 59.8 MiB (8%)
Title : English
Language : English
Default : No
Forced : NoText
ID : 4
Format : UTF-8
Codec ID : S_TEXT/UTF8
Codec ID/Info : UTF-8 Plain Text
Title : eng-sub
Language : English
Default : No
Forced : No

Скриншот c названием фильма

Скриншоты

Яндекс.Метрика
Рейтинг@Mail.ru