Кровный отец / Blood Father (Жан-Франсуа Рише / Jean-François Richet) [2016 г., боевик, триллер, HDRip] MVO ["Paradox" & Omskbird records]

 

Создавать темы 01-Окт-2016 04:32

--Кровный отец / Blood Father--«A Father Makes His Own Justice»-- Производство: Франция, Why Not Productions
Год выпуска: 2016 г.
Жанр: боевик, триллер
Продолжительность: 01:28:13--Мировая премьера: 21 мая 2016--Перевод: Любительский (многоголосый закадровый) ["Paradox" & Omskbird records]--Режиссер: Жан-Франсуа Рише / Jean-François Richet--В ролях: Мэл Гибсон, Эрин Мориарти, Диего Луна, Майкл Паркс, Уильям Х. Мэйси, Мигель Сандовал, Дейл Дикки, Ричард Кебрал, Дэниэл Монкада, Райан Дорси--Описание: Бывший заключенный, раньше не участвовавший в воспитании дочери, узнав о том, что его дочь преследуют наркоторговцы и жаждут ее смерти, решил помочь ей с проблемами.-- --Качество видео: HDRip
Контейнер: AVI
Видео кодек: XviD
Аудио кодек: AC3
Видео: 720x304 (2.37:1), 23.976 fps, XviD build 50 ~1760 kbps avg, 0.34 bit/pixel
Аудио: 48 kHz, AC3 Dolby Digital, 3/2 (L,C,R,l,r) + LFE ch, ~448 kbpsCубтитры: отсутствуют.

Media Info

Общее
Полное имя : H:\Torrent2\Krovaviy.Papashka.2O16.P.HDRip.14OOMB.avi
Формат : AVI
Формат/Информация : Audio Video Interleave
Размер файла : 1,37 Гбайт
Продолжительность : 1 ч. 28 м.
Общий поток : 2218 Кбит/сек
Программа кодирования : VirtualDubMod 1.5.10.2 (build 2540/release)
Библиотека кодирования : VirtualDubMod build 2540/releaseВидео
Идентификатор : 0
Формат : MPEG-4 Visual
Профиль формата : Advanced [email protected]/* */
Параметр BVOP формата : 2
Параметр QPel формата : Нет
Параметр GMC формата : Без точки перехода
Параметр матрицы формата : Выборочная
Идентификатор кодека : XVID
Идентификатор кодека/Подсказка : XviD
Продолжительность : 1 ч. 28 м.
Битрейт : 1761 Кбит/сек
Ширина : 720 пикселей
Высота : 304 пикселя
Соотношение сторон : 2,35:1
Частота кадров : 23,976 (24000/1001) кадра/сек
Цветовое пространство : YUV
Субдискретизация насыщенности : 4:2:0
Битовая глубина : 8 бит
Тип развёртки : Прогрессивная
Метод сжатия : С потерями
Бит/(Пиксели*Кадры) : 0.336
Размер потока : 1,09 Гбайт (79%)
Библиотека кодирования : XviD 1.2.1 (UTC 2008-12-04)Аудио
Идентификатор : 1
Формат : AC-3
Формат/Информация : Audio Coding 3
Расширение режима : CM (complete main)
Параметр Endianness формата : Big
Идентификатор кодека : 2000
Продолжительность : 1 ч. 28 м.
Вид битрейта : Постоянный
Битрейт : 448 Кбит/сек
Каналы : 6 каналов
Расположение каналов : Front: L C R, Side: L R, LFE
Частота : 48,0 КГц
Частота кадров : 31,250 кадров/сек (1536 spf)
Метод сжатия : С потерями
Размер потока : 283 Мбайт (20%)
Выравнивание : Разделение по промежуткам
Продолжительность промежутка : 42 мс. (1,00 видеокадр)
Время предзагрузки промежутка : 500 мс.

Скриншоты

Трейлер
Яндекс.Метрика
Рейтинг@Mail.ru