Новая полицейская история / New police story / Xin jing cha gu shi (Бенни Чан / Benny Chan) [2004, Боевик, Триллер, Драма, Криминал, HDRip]

 

Создавать темы 29-Сен-2016 20:16

-Новая полицейская история / New police story «На этот раз пощады не будет»- Производство: Гонконг, Китай
Жанр: Боевик, Триллер, Драма, Криминал
Режиссер: Бенни Чан
Актеры: Джеки Чан, Николас Тсе, Чарли Енг, Чарлин Чой, Дэниэл Ву, Дейв Вон, Энди Он, Теренс Йин, Мак Пау, Так-бун Вонг
Описание:
Команда инспектора Винга почти полностью уничтожена в неравной схватке с гангстерами. Чудом оставшийся в живых полицейский винит себя в смерти друзей и начинает искать забвение в алкоголе.
Новый напарник инспектора, молодой офицер помогает Вингу вернуться к жизни. Вместе они бросают вызов мафии Гонконга и вступают на путь мести, чтобы наказать убийц своих товарищей.


Возраст: 16+ (зрителям, достигшим 16 лет)
Рейтинг MPAA: R (лицам до 17 лет обязательно присутствие взрослого)
Дата выхода DVD/Blu-ray релиза: 17 марта 2005, «Союз-Видео»
Продолжительность: 02:02:54
Качество видео: HDRip SAMPLE
Перевод: Дублированный
Видео: Xvid, 720x304 (2,35:1), ~1233 Kbps (0.235 bit/pixel)
Аудио: Русский Dolby AC3, 48.0 kHz, 6 ch, 448 Kbps, CBR

МИ

Общее
Полное имя :\Novaya.policeiskaya.istoriya.2004.HDRip.avi
Формат : AVI
Формат/Информация : Audio Video Interleave
Размер файла : 1,45 Гбайт
Продолжительность : 2 ч. 2 м.
Общий поток : 1690 Кбит/сек
Программа кодирования : VirtualDubMod 1.5.10.3 | www.virtualdub-fr.org || (build 2550/release)
Библиотека кодирования : VirtualDubMod build 2550/release
Видео
Идентификатор : 0
Формат : MPEG-4 Visual
Профиль формата : Advanced [email protected]
Параметр BVOP формата : Да
Параметр QPel формата : Нет
Параметр GMC формата : Без точки перехода
Параметр матрицы формата : Выборочная
Идентификатор кодека : XVID
Идентификатор кодека/Подсказка : XviD
Продолжительность : 2 ч. 2 м.
Битрейт : 1233 Кбит/сек
Ширина : 720 пикселей
Высота : 304 пикселя
Соотношение сторон : 2,35:1
Частота кадров : 23,976 (23976/1000) кадра/сек
Цветовое пространство : YUV
Субдискретизация насыщенности : 4:2:0
Битовая глубина : 8 бит
Тип развёртки : Прогрессивная
Метод сжатия : С потерями
Бит/(Пиксели*Кадры) : 0.235
Размер потока : 1,06 Гбайт (73%)
Библиотека кодирования : XviD 73
Аудио
Идентификатор : 1
Формат : AC-3
Формат/Информация : Audio Coding 3
Расширение режима : CM (complete main)
Параметр Endianness формата : Big
Идентификатор кодека : 2000
Продолжительность : 2 ч. 2 м.
Вид битрейта : Постоянный
Битрейт : 448 Кбит/сек
Каналы : 6 каналов
Расположение каналов : Front: L C R, Side: L R, LFE
Частота : 48,0 КГц
Частота кадров : 31,250 кадров/сек (1536 spf)
Метод сжатия : С потерями
Размер потока : 394 Мбайт (27%)
Выравнивание : Разделение по промежуткам
Продолжительность промежутка : 42 мс. (1,00 видеокадр)
Время предзагрузки промежутка : 500 мс.

Знаете ли вы, что...:

  • У себя на родине в Гонконге «Новая полицейская история» попала в списки лидеров проката, собрав только за первые три дня около $2,5 млн.
  • Кинотеатры Китая получили более 400 копий фильма, чтобы удовлетворить зрительский интерес, что принесло его создателям еще около $12 млн.
  • Высота, с которой Джеки Чан спускался в наручниках, составила 27 этажей.

Рецензия, отзыв:

Из книги «3500 кинорецензий»
Полицейский драматический боевик
Данный фильм можно было бы посчитать пятой серией популярного комического боевика «Полицейская история», снятого ещё в 1985 году, если бы «Новая полицейская история» имела прямое отношение к четырём другим лентам с Джеки Чаном в роли полицейского Кевина Чана. А тут его героя вообще зовут иначе — Чан Квоквин, и этот старший инспектор полиции переживает далеко не лучшие времена, фактически уйдя с работы и постепенно спиваясь, поскольку не может простить себе гибель девятерых сотрудников, которые стали жертвами жестоких и циничных преступников из молодого поколения, возглавляемых неким Джо Кваном, сынком высокопоставленного полицейского чина. И только упорство и настойчивость Фрэнка Чэна, выдающего себя за нового партнёра инспектора, помогает ему вновь воспрянуть духом и начать борьбу с «золотыми мальчиками», для которых ограбления банков и убийства людей являются всего лишь увлекательной игрой — вроде тех, что разрабатываются для компьютерных забав.
Уже пятидесятилетний Джеки Чан, вернувшийся в Гонконг, чтобы после серии комедийно-приключенческих голливудских лент опять сняться в местном боевике, решился на некоторое изменение своего экранного имиджа, пожалуй, впервые уделяя повышенное внимание драматической игре. Его персонаж в «Новой полицейской истории» страдает и даже пытается плакать на крупном плане, хотя нельзя сказать, что актёр в этом достаточно убедителен. Зато он практически не комикует, что для кого-то из прежних поклонников Чана станет разочарованием. Однако продолжает выполнять сумасшедшие трюки, несмотря на свой солидный возраст, и делает их с немалым вызовом по отношению к американской киноиндустрии, где Джеки Чану запрещают из соображений безопасности вытворять нечто подобное.
Сцены бегства от взрывной волны, поединки в супермаркете или на крыше весьма необычного здания Банка Гонконга (что, между прочим, может косвенно напомнить классические эпизоды в финале «Человека, который слишком много знал», одного из ранних английских фильмов Альфреда Хичкока) действительно впечатляют. Поэтому не случайно были отмечены кинопризами «Золотая лошадь» именно постановщики трюков и создатели визуальных эффектов, как, впрочем, и Дэниел У, исполнитель роли главного злодея Джо, неизбежно расплачивающегося за то, что слишком заигрался в опасные игры со смертельным исходом.
2004 | Сергей Кудрявцев
Скриншоты:

дополнительные скриншоты:

Яндекс.Метрика
Рейтинг@Mail.ru