[ Сегодня на трекере фрилич! Идет свободное скачивание без начисления Download ]

Великолепная семерка / The Magnificent Seven (Антуан Фукуа / Antoine Fuqua) [2016 г., боевик, вестерн, TS] Dub

 

Создавать темы 27-Сен-2016 02:15

--Великолепная семерка / The Magnificent Seven--«Justice has a number»-- Производство: США / Columbia Pictures, LStar Capital, Metro-Goldwyn-Mayer (MGM), Village Roadshow Pictures
Год выпуска: 2016 г.
Жанр: боевик, вестерн
Продолжительность: 02:08:15--Мировая премьера: 8 сентября 2016
Российская премьера: 22 сентября 2016, «WDSSPR»--Перевод: Профессиональный (полное дублирование)--Режиссер: Антуан Фукуа / Antoine Fuqua--В ролях: Дензел Вашингтон, Крис Пратт, Итан Хоук, Винсент Д'Онофрио, Ли Бён-хон, Мануэль Рульфо, Мартин Сенсмейер, Хейли Беннетт, Питер Сарсгаард, Люк Граймс--Описание: Семеро отважных искателей приключений встают на защиту жителей маленького городка, угнетаемого бандой грабителей.-- --Качество видео: TS
Контейнер: AVI
Видео кодек: XviD
Аудио кодек: AC3
Видео: 720x304 (2.37:1), 29.970 fps, XviD build 50 ~1893 kbps avg, 0.29 bit/pixel
Аудио: 48 kHz, AC3 Dolby Digital, 2/0 (L,R) ch, ~384 kbps
Cубтитры: отсутствуют.

Media Info

Общее
Полное имя : H:\Torrent2\Semerka.2O16.D.TS.21OOMB.avi
Формат : AVI
Формат/Информация : Audio Video Interleave
Профиль формата : OpenDML
Размер файла : 2,05 Гбайт
Продолжительность : 2 ч. 8 м.
Общий поток : 2292 Кбит/сек
Программа кодирования : VirtualDubMod 1.5.10.2 (build 2540/release)
Библиотека кодирования : VirtualDubMod build 2540/releaseВидео
Идентификатор : 0
Формат : MPEG-4 Visual
Профиль формата : Advanced [email protected]/* */
Параметр BVOP формата : 2
Параметр QPel формата : Нет
Параметр GMC формата : Без точки перехода
Параметр матрицы формата : Выборочная
Идентификатор кодека : XVID
Идентификатор кодека/Подсказка : XviD
Продолжительность : 2 ч. 8 м.
Битрейт : 1893 Кбит/сек
Ширина : 720 пикселей
Высота : 304 пикселя
Соотношение сторон : 2,35:1
Частота кадров : 29,970 (30000/1001) кадров/сек
Цветовое пространство : YUV
Субдискретизация насыщенности : 4:2:0
Битовая глубина : 8 бит
Тип развёртки : Прогрессивная
Метод сжатия : С потерями
Бит/(Пиксели*Кадры) : 0.289
Размер потока : 1,70 Гбайт (83%)
Библиотека кодирования : XviD 1.2.1 (UTC 2008-12-04)Аудио
Идентификатор : 1
Формат : AC-3
Формат/Информация : Audio Coding 3
Расширение режима : CM (complete main)
Параметр Endianness формата : Big
Идентификатор кодека : 2000
Продолжительность : 2 ч. 8 м.
Вид битрейта : Постоянный
Битрейт : 384 Кбит/сек
Каналы : 2 канала
Расположение каналов : Front: L R
Частота : 48,0 КГц
Частота кадров : 31,250 кадров/сек (1536 spf)
Метод сжатия : С потерями
Размер потока : 352 Мбайт (17%)
Выравнивание : Разделение по промежуткам
Продолжительность промежутка : 33 мс. (1,00 видеокадр)
Время предзагрузки промежутка : 500 мс.

Скриншоты

ТрейлерПРИСУТСТВУЕТ РЕКЛАМА!
Яндекс.Метрика
Рейтинг@Mail.ru