Стерва / Спасти Сильвермана / Saving Silverman (Деннис Дуган / Dennis Dugan) [2001 г., комедия, WEB-DL, 720p] Dub [Невафильм 2002] + MVO [Видеосервис] + Original (Eng) + Sub (Rus, Eng)

 

Создавать темы 26-Сен-2016 06:20

-Стерва / Спасти Сильвермана / Saving Silverman-- Производство: США, Австралия
Год выпуска: 2001 г.
Жанр: комедия
Продолжительность: 01:36:22Мировая премьера: 7 февраля 2001
Российская премьера: 18 апреля 2002, «Каскад»
Дата выхода DVD: 1 августа 2002, «Columbia/Sony»
Перевод: Профессиональный (полное дублирование) [Невафильм 2002]
Перевод 2: Профессиональный (многоголосый, закадровый) [Видеосервис]
Оригинальный аудиопоток: английскийРежиссер: Деннис Дуган / Dennis Dugan-В ролях: Стив Зан, Джек Блэк, Джейсон Биггз, Аманда Пит, Аманда Детмер, Р. Ли Эрми, Нил Даймонд, Кайл Гэсс, Норман Армор, Колин Фу...-Описание: Друзья помогут. Даже когда их об этом не просят. Когда Джей Ди и Уэйн обнаруживают, что их закадычный друг Даррен Сильверман собрался совершить самую ужасную ошибку в своей жизни — пойти к алтарю со стервозной красоткой Джудит, они тут же замышляют заговор спасения своего незадачливого приятеля из лап злой и амбициозной девицы.К несчастью, они сами не могут похвастаться умением все делать правильно и без осечек, поэтому не находят ничего лучшего, как сыграть в Джеймсов Бондов и похитить Джудит. А в ее отсутствие свести Даррена с его бывшей школьной любовью, милой и доброй Сэнди.Безумный план. Но, может быть, именно сумасшедшие идеи и должны срабатывать в таких случаях? И вот, весьма рискованная операция «Спасти от невесты» начинается!..-
Качество видео: WEB-DL
Контейнер: MKV
Стандарт разрешения: 720p
Видео кодек: MPEG4 AVC
Аудио кодек: AC3
Видео: 1280x720 (16:9), 23.976 fps, AVC, ~3703 Kbps, 0.168 bits/pixel
Аудио: 48.0 KHz, AC3, 2 ch, 224 Kbps
Аудио #2: 48.0 KHz, AC3, 6 ch, 448 Kbps
Аудио #3: 48.0 KHz, AC3, 6 ch, 448 KbpsCубтитры: русские, английские

Доп. информация

В рекламном ролике фильма герою Стива Зана пририсовали цифровым способом голубые трусы, поскольку Американской киноассоциации (MPAA) этот эпизод показался слишком откровенным.
Джей Ди (Джек Блэк) сравнивает Джудит (Аманда Пит) с Ганнибалом Лектором. Любопытно, что «Стерва» и «Ганнибал» были выпущены в США в один и тот же день.
Режиссер фильма Деннис Дуган появился в эпизоде-камео, сыграв футбольного судью.

Рецензия

Спасти от невестыЕщё встречал под таким названием сей замечательный фильм.Не понимаю. Не понимаю, почему такой обалденный фильм имеет в своём активе столь мало рецензий, половина из которых к тому же отрицательные. Не понимаю, почему «Американский пирог» с сюжетом о том, как озабоченным подросткам нужно заняться сексом, становится культовой молодёжной комедией, а гораздо более сюжетная и уж точно более смешная «Стерва» находится в состоянии полузабытия. Ведь это действительно интересный фильм и действительно смешной.Я не очень много смотрел молодёжных комедий, но из всех, что видел, «Стерва» находится по шкале впечатлений в верхней части таблицы. И я даже не буду перечислять все понравившиеся мне аспекты фильма. Потому что это слишком безбашенный и беззаботный фильм, чтобы ещё разбирать его по полочкам.Одна из лучших простеньких, но максимально содержательных молодёжных комедий, взывающая к периодическому просмотру для поднятия настроения.10 из 10

Media Info

Общее
Уникальный идентификатор : 180164617459889520348583624045356794917 (0x878A71737DC551818011EEC233CE4425)
Полное имя : F:\Стерва\Sterva.2001.WEB-DL.720p.[pirat.ca].mkv
Формат : Matroska
Версия формата : Version 2
Размер файла : 3,32 Гбайт
Продолжительность : 1 ч. 36 м.
Общий поток : 4928 Кбит/сек
Дата кодирования : UTC 2016-09-25 13:24:04
Программа кодирования : mkvmerge v5.3.0 ('I could have danced') built on Feb 9 2012 10:38:07
Библиотека кодирования : libebml v1.2.3 + libmatroska v1.3.0Видео
Идентификатор : 1
Формат : AVC
Формат/Информация : Advanced Video Codec
Профиль формата : [email protected]/* */
Параметр CABAC формата : Нет
Параметр ReFrames формата : 2 кадра
Идентификатор кодека : V_MPEG4/ISO/AVC
Продолжительность : 1 ч. 36 м.
Битрейт : 3710 Кбит/сек
Ширина : 1280 пикселей
Высота : 720 пикселей
Соотношение сторон : 16:9
Режим частоты кадров : Постоянный
Частота кадров : 23,976 кадра/сек
Цветовое пространство : YUV
Субдискретизация насыщенности : 4:2:0
Битовая глубина : 8 бит
Тип развёртки : Прогрессивная
Бит/(Пиксели*Кадры) : 0.168
Размер потока : 2,50 Гбайт (75%)
Язык : English
Default : Да
Forced : Нет
Цветовой диапазон : Limited
Основные цвета : BT.709
Характеристики трансфера : BT.709
Коэффициенты матрицы : BT.709
Statistics Tags Issue : mkvmerge v7.7.0 ('Six Voices') 64bit built on Feb 28 2015 23:39:33 2015-03-26 17:27:06 / mkvmerge v5.3.0 ('I could have danced') built on Feb 9 2012 10:38:07 2016-09-25 13:24:04
FromStats_BitRate : 3806051
FromStats_Duration : 01:36:21.240000000
FromStats_FrameCount : 138611
FromStats_StreamSize : 2750462000Аудио #1
Идентификатор : 2
Формат : AC-3
Формат/Информация : Audio Coding 3
Расширение режима : CM (complete main)
Параметр Endianness формата : Big
Идентификатор кодека : A_AC3
Продолжительность : 1 ч. 36 м.
Вид битрейта : Постоянный
Битрейт : 224 Кбит/сек
Каналы : 2 канала
Расположение каналов : Front: L R
Частота : 48,0 КГц
Частота кадров : 31,250 кадров/сек (1536 spf)
Метод сжатия : С потерями
Размер потока : 154 Мбайт (5%)
Заголовок : Видеосервис
Язык : Russian
Default : Да
Forced : Нет
Statistics Tags Issue : mkvmerge v7.7.0 ('Six Voices') 64bit built on Feb 28 2015 23:39:33 2015-03-26 17:27:06 / mkvmerge v5.3.0 ('I could have danced') built on Feb 9 2012 10:38:07 2016-09-25 13:24:04
FromStats_BitRate : 224000
FromStats_Duration : 01:36:21.248000000
FromStats_FrameCount : 180664
FromStats_StreamSize : 161874944Аудио #2
Идентификатор : 3
Формат : AC-3
Формат/Информация : Audio Coding 3
Расширение режима : CM (complete main)
Параметр Endianness формата : Big
Идентификатор кодека : A_AC3
Продолжительность : 1 ч. 36 м.
Вид битрейта : Постоянный
Битрейт : 448 Кбит/сек
Каналы : 6 каналов
Расположение каналов : Front: L C R, Side: L R, LFE
Частота : 48,0 КГц
Частота кадров : 31,250 кадров/сек (1536 spf)
Метод сжатия : С потерями
Размер потока : 309 Мбайт (9%)
Заголовок : Видеосервис 2
Язык : Russian
Default : Нет
Forced : Нет
Statistics Tags Issue : mkvmerge v7.7.0 ('Six Voices') 64bit built on Feb 28 2015 23:39:33 2015-03-26 17:27:06 / mkvmerge v5.3.0 ('I could have danced') built on Feb 9 2012 10:38:07 2016-09-25 13:24:04
FromStats_BitRate : 448000
FromStats_Duration : 01:36:22.368000000
FromStats_FrameCount : 180699
FromStats_StreamSize : 323812608Аудио #3
Идентификатор : 4
Формат : AC-3
Формат/Информация : Audio Coding 3
Расширение режима : CM (complete main)
Параметр Endianness формата : Big
Идентификатор кодека : A_AC3
Продолжительность : 1 ч. 36 м.
Вид битрейта : Постоянный
Битрейт : 448 Кбит/сек
Каналы : 6 каналов
Расположение каналов : Front: L C R, Side: L R, LFE
Частота : 48,0 КГц
Частота кадров : 31,250 кадров/сек (1536 spf)
Метод сжатия : С потерями
Размер потока : 309 Мбайт (9%)
Язык : English
Default : Нет
Forced : Нет
Statistics Tags Issue : mkvmerge v7.7.0 ('Six Voices') 64bit built on Feb 28 2015 23:39:33 2015-03-26 17:27:06 / mkvmerge v5.3.0 ('I could have danced') built on Feb 9 2012 10:38:07 2016-09-25 13:24:04
FromStats_BitRate : 448000
FromStats_Duration : 01:36:21.248000000
FromStats_FrameCount : 180664
FromStats_StreamSize : 323749888Текст #1
Идентификатор : 5
Формат : UTF-8
Идентификатор кодека : S_TEXT/UTF8
Идентификатор кодека/Информация : UTF-8 Plain Text
Язык : Russian
Default : Нет
Forced : Нет
Statistics Tags Issue : mkvmerge v7.7.0 ('Six Voices') 64bit built on Feb 28 2015 23:39:33 2015-03-26 17:27:06 / mkvmerge v5.3.0 ('I could have danced') built on Feb 9 2012 10:38:07 2016-09-25 13:24:04
FromStats_BitRate : 103
FromStats_Duration : 01:35:15.460000000
FromStats_FrameCount : 1321
FromStats_StreamSize : 73902Текст #2
Идентификатор : 6
Формат : UTF-8
Идентификатор кодека : S_TEXT/UTF8
Идентификатор кодека/Информация : UTF-8 Plain Text
Язык : English
Default : Нет
Forced : Нет
Statistics Tags Issue : mkvmerge v7.7.0 ('Six Voices') 64bit built on Feb 28 2015 23:39:33 2015-03-26 17:27:06 / mkvmerge v5.3.0 ('I could have danced') built on Feb 9 2012 10:38:07 2016-09-25 13:24:04
FromStats_BitRate : 60
FromStats_Duration : 01:35:10.870000000
FromStats_FrameCount : 1310
FromStats_StreamSize : 43074Меню
00:00:00.000 : en:Start
00:07:16.000 : en:Diamonds In The Rough
00:10:10.000 : en:Darren Meets Satan
00:16:39.000 : en:The Hall
00:18:01.000 : en:Sunday Ritual
00:23:02.000 : en:Winner takes Darren
00:25:07.000 : en:"Notice anything weird?"
00:27:17.000 : en:Sandy returns
00:30:00.000 : en:"Die, replacement friend!"
00:32:47.000 : en:Kidnapped!
00:39:00.000 : en:Nun-sense
00:42:15.000 : en:Incinerated beyond recognition
00:44:47.000 : en:Coach's advice
00:46:50.000 : en:"Snuff her!"
00:48:43.000 : en:Comforting Darren
00:51:08.000 : en:Therapy Session
00:51:54.000 : en:Saved by the belle
00:55:33.000 : en:Escape of the killer goat
01:00:48.000 : en:Second thoughts
01:04:58.000 : en:Negative reinforcement
01:09:46.000 : en:Why Darren
01:11:11.000 : en:Seduction of the Innocent
01:13:38.000 : en:Crashing with the Warbirds
01:16:54.000 : en:Return of the Living Dead
01:21:31.000 : en:Prison break
01:23:56.000 : en:"We got him!"
01:26:21.000 : en:Crashing a wedding
01:29:21.000 : en:Happy ending credits

Скриншот c названием фильма

Скриншоты

Трейлер

Яндекс.Метрика
Рейтинг@Mail.ru