[ Сегодня на трекере фрилич! Идет свободное скачивание без начисления Download ]

Арка / ARQ (Тони Эллиотт / Tony Elliott) [2016, Фантастика, Триллер, WEB-DLRip]

 

Создавать темы 25-Сен-2016 10:00

Арка / ARQ--- Год: 2016
Производство: США
Жанр: Фантастика, Триллер
Режиссер: Тони Эллиотт
Актеры: Робби Амелл, Рэйчел Тейлор, Грэй Пауэлл, Джейкоб Нийем, Шон Бенсон, Адам Батчер, Джейми Спильчук
Описание:
Будущее Земли зависит от новой технологии, но на пути к выживании планеты — неожиданный поворот.
Запертые в лаборотории и застрявшие во временной петле, дезориентированные герои пытаются скрыться от захватчиков в масках, одновременно сохранив новый источник энергии, который может спасти человечество.


Дата мировой премьеры: 9 сентября 2016
Продолжительность: 01:28:04
Качество видео: WEB-DLRip pic
Перевод: Многоголосый закадровый, любительский (СПД)
Реклама: присутствуют аудио и видео вставки рекламы.
Видео: Xvid, 720х304, 1 822 kb/s
Аудио: AC3, 2 ch, 384 kb/s

МИ

ARQ.2O16.P.WEB-DLRip.14OOMB.avi
Format                      : AVI
Format/Info                 : Audio Video Interleave
File size                   : 1.36 GiB
Duration                    : 1 h 28 min
Overall bit rate            : 2 215 kb/s
Writing application         : VirtualDubMod 1.5.10.2 (build 2540/release)
Writing library             : VirtualDubMod build 2540/release
Video
ID                          : 0
Format                      : MPEG-4 Visual
Format profile              : Advanced [email protected]
Format settings, BVOP       : 2
Format settings, QPel       : No
Format settings, GMC        : No warppoints
Format settings, Matrix     : Custom
Codec ID                    : XVID
Codec ID/Hint               : XviD
Duration                    : 1 h 28 min
Bit rate                    : 1 822 kb/s
Width                       : 720 pixels
Height                      : 304 pixels
Display aspect ratio        : 2.35:1
Frame rate                  : 23.976 (24000/1001) FPS
Color space                 : YUV
Chroma subsampling          : 4:2:0
Bit depth                   : 8 bits
Scan type                   : Progressive
Compression mode            : Lossy
Bits/(Pixel*Frame)          : 0.347
Stream size                 : 1.12 GiB (82%)
Writing library             : XviD 1.2.1 (UTC 2008-12-04)
Audio
ID                          : 1
Format                      : AC-3
Format/Info                 : Audio Coding 3
Mode extension              : CM (complete main)
Format settings, Endianness : Big
Codec ID                    : 2000
Duration                    : 1 h 28 min
Bit rate mode               : Constant
Bit rate                    : 384 kb/s
Channel(s)                  : 2 channels
Channel positions           : Front: L R
Sampling rate               : 48.0 kHz
Frame rate                  : 31.250 FPS (1536 spf)
Compression mode            : Lossy
Stream size                 : 242 MiB (17%)
Alignment                   : Split accross interleaves
Interleave, duration        : 42  ms (1.00 video frame)
Interleave, preload duratio : 500  ms
Скриншоты:
Яндекс.Метрика
Рейтинг@Mail.ru