Ярость / Rampage (Уве Болл / Uwe Boll) [2009 г., боевик, триллер, драма, криминал, BDRip, 1080p] DVO [Veles Studio («CP-Digital»)] + Sub (Rus)

 

Создавать темы 21-Сен-2016 03:31

-Ярость / Rampage-- Производство: Канада, Германия
Год выпуска: 2009 г.
Жанр: боевик, триллер, драма, криминал
Продолжительность: 01:24:40Мировая премьера: 14 августа 2009
Дата выхода DVD: 21 октября 2010, «CP-Digital»
Перевод: Профессиональный (двухголосый, закадровый) [Veles Studio («CP-Digital»)]
Режиссер: Уве Болл / Uwe Boll-В ролях: Брендан Флетчер, Шон Сайпос, Майкл Паре, Мэтт Фрюэр, Линда Бойд, Роберт Кларк, Малкольм Стюарт, Стеффен Меннекс, Кэти Грэйс, Лори Брунетти-Описание: Билл Уильямсон — обычный парень из тихого американского городка. Но в «один прекрасный день» он «вооружается до зубов» и выходит на улицу. Билл с упорством настоящего маньяка истребляет жителей города, полагая, что все они виновны в мировых политико-экономических катаклизмах, о которых каждый день говорят в новостях по телевизору… Эффект реалистичности происходящего усиливает съемка трясущейся камерой и повествование от лица убийцы.-
Качество видео: BDRip
Контейнер: MKV
Стандарт разрешения: 1080p
Видео кодек: MPEG4 AVC
Аудио кодек: AC3
Видео: 1920x800 (2,40:1), 23.976 fps, 8400 kbps
Аудио: AC-3, 6 ch, 448 kbps
Cубтитры: русские
Формат субтитров: softsub (SRT)
Доп. информация о субтитрах: включаемые

Рецензия

Такой Уве мне нужен!Я поражен… Я не верю своим глазам… Режиссером и сценаристом фильма, который я сейчас увидел, является никто иной как Уве Болл. Теперь я буду относиться к нему с большим почтением. Обиженные экранизациями фанаты игр, призываю вас — не ставьте единицы даже не посмотрев фильм, Уве Исправился, Уве — хороший.Этот фильм из разряда тех картин, которые я безумно ценю. Картин, после которых ты погружаешься в размышления. Картин, способных заставить тебя рождать такие мысли, которых сам пугаешься.Идеология, которой пропитан фильм и которую несет в себе главный герой безумно взрывоопасна. Мотивы главного героя для меня понятны, и даже в его размышлениях, есть много неоспоримой истины. В чем то его позиция схожа с позицией Тайлера Дердена из БК. Главный герой пропитался насквозь этой разрушительной идеей. Он готовит себя к войне против человечества, во благо человечества (как он считает). В один момент, он решает что пора начинать действовать и тогда он выходит на улицу и хладнокровно делает свою работу. Он считает себя абсолютно правым, чуть ли не мессией, новым пророком, поэтому в его действиях нет колебаний.Пару слов об остальных аспектах фильма:Операторская работа — ею я остался доволен, сохранена та грань, при которой фильм выглядит документально, но при этом присутствуют интересные ракурсы и экшен. Что касается музыки- саундтрек не из тех что запоминается, но подобран хорошо, и прекрасно дополняет действие на экране. Игра актеров на уровне. Особенно хорош главный герой — Брендан Флетчер превосходно вжился в рольВ общем фильм хорош — оставляет зрителю пищу для размышлений, при этом прекрасно снят за свой бюджет. У меня фильм оставил самые положительные впечатления и я изменил свое мнение об Уве Болле. Он не бездарность, просто экранизация игр это не его стихия.

Media Info

Общее
Уникальный идентификатор : 205506086850842815660024828145048319362 (0x9A9B085B39AFDDC98A3B833FA5397582)
Полное имя : C:\герои 7\Ярость\JArostj.2009.BDRip.1080p.[pirat.ca].mkv
Формат : Matroska
Версия формата : Version 2
Размер файла : 5,23 Гбайт
Продолжительность : 1 ч. 24 м.
Общий поток : 8846 Кбит/сек
Название фильма : Ярость / Rampage (2009)
Дата кодирования : UTC 2016-09-19 13:32:27
Программа кодирования : mkvmerge v5.3.0 ('I could have danced') built on Feb 9 2012 10:38:07
Библиотека кодирования : libebml v1.2.3 + libmatroska v1.3.0Видео
Идентификатор : 1
Формат : AVC
Формат/Информация : Advanced Video Codec
Профиль формата : [email protected]/* */
Параметр CABAC формата : Да
Параметр ReFrames формата : 5 кадров
Идентификатор кодека : V_MPEG4/ISO/AVC
Продолжительность : 1 ч. 24 м.
Битрейт : 8400 Кбит/сек
Ширина : 1920 пикселей
Высота : 800 пикселей
Соотношение сторон : 2,40:1
Режим частоты кадров : Постоянный
Частота кадров : 23,976 (24000/1001) кадра/сек
Цветовое пространство : YUV
Субдискретизация насыщенности : 4:2:0
Битовая глубина : 8 бит
Тип развёртки : Прогрессивная
Бит/(Пиксели*Кадры) : 0.228
Размер потока : 4,86 Гбайт (93%)
Библиотека кодирования : x264 core 125 r2208 d9d2288
Настройки программы : cabac=1 / ref=5 / deblock=1:0:0 / analyse=0x3:0x133 / me=umh / subme=10 / psy=1 / psy_rd=1.00:0.10 / mixed_ref=1 / me_range=32 / chroma_me=1 / trellis=2 / 8x8dct=1 / cqm=0 / deadzone=21,11 / fast_pskip=0 / chroma_qp_offset=-3 / threads=12 / lookahead_threads=2 / sliced_threads=0 / nr=0 / decimate=0 / interlaced=0 / bluray_compat=0 / constrained_intra=0 / bframes=5 / b_pyramid=2 / b_adapt=2 / b_bias=0 / direct=3 / weightb=1 / open_gop=0 / weightp=2 / keyint=240 / keyint_min=23 / scenecut=40 / intra_refresh=0 / rc=2pass / mbtree=0 / bitrate=8400 / ratetol=1.0 / qcomp=0.60 / qpmin=0 / qpmax=69 / qpstep=4 / cplxblur=20.0 / qblur=0.5 / ip_ratio=1.40 / pb_ratio=1.30 / aq=1:0.80
Язык : English
Default : Да
Forced : НетАудио
Идентификатор : 2
Формат : AC-3
Формат/Информация : Audio Coding 3
Расширение режима : CM (complete main)
Параметр Endianness формата : Big
Идентификатор кодека : A_AC3
Продолжительность : 1 ч. 24 м.
Вид битрейта : Постоянный
Битрейт : 448 Кбит/сек
Каналы : 6 каналов
Расположение каналов : Front: L C R, Side: L R, LFE
Частота : 48,0 КГц
Частота кадров : 31,250 кадров/сек (1536 spf)
Метод сжатия : С потерями
Размер потока : 271 Мбайт (5%)
Заголовок : Двухголосый закадровый, Veles Studio
Язык : Russian
Default : Да
Forced : НетТекст
Идентификатор : 3
Формат : UTF-8
Идентификатор кодека : S_TEXT/UTF8
Идентификатор кодека/Информация : UTF-8 Plain Text
Заголовок : Rus Full
Язык : Russian
Default : Нет
Forced : НетМеню
00:00:00.000 : :Chapter 01
00:07:50.345 : :Chapter 02
00:14:41.254 : :Chapter 03
00:21:46.638 : :Chapter 04
00:29:49.286 : :Chapter 05
00:40:48.695 : :Chapter 06
00:46:14.480 : :Chapter 07
00:54:36.190 : :Chapter 08
01:00:48.686 : :Chapter 09
01:06:55.510 : :Chapter 10
01:13:14.515 : :Chapter 11
01:17:52.877 : :Chapter 12

Скриншот c названием фильма

Скриншоты

Трейлер

Яндекс.Метрика
Рейтинг@Mail.ru