[ Сегодня на трекере фрилич! Идет свободное скачивание без начисления Download ]

Рэй Донован / Ray Donovan / Сезон: 4 / Серии: 12 из 12 (Майкл Аппендаль / Michael Uppendahl, ...) [2016 г., драма, криминал, WEB-DL, 720p] MVO (Amedia) + Sub (Rus, Eng)

 

Создавать темы 21-Сен-2016 03:27

-Рэй Донован / Ray Donovan-- Производство: США, The Mark Gordon Company
Жанр: драма, криминал
Год выпуска: 2016 г.
Продолжительность: 00:50:00Мировая премьера: 20 июня 2016
Перевод: Профессиональный (многоголосый, закадровый) [Amedia ]
Режиссер: Майкл Аппендаль / Michael Uppendahl, ...-В ролях: Лив Шрайбер, Девон Бэгби, Уильям Стэнфорд Дэвис, Кэтрин Менниг, Фрэнк Уэйли, Октавиус Дж. Джонсон-Описание: Сериал расскажет о Рэе Доноване, профессиональном "разруливателе проблем", которого вызывают, когда у кого-то из "богатых и знаменитых" жителей Лос-Анджелеса возникают сложности.-
Качество видео: WEB-DL
Контейнер: MKV
Стандарт разрешения: 720p
Видео кодек: MPEG4 AVC
Аудио кодек: AC3
Видео: ~ 3390 kbps | 1280x720 (16:9) | 25 fps
Аудио: AC3 | 48.0 KHz | 2 ch | 192 kbps
Аудио #2: AC3 | 48.0 KHz | 2 ch | 192 kbpsCубтитры: русские, английские
Формат субтитров: softsub (SRT)
Доп. информация о субтитрах: включаемые

Награды

Золотой глобус, 2016 год
Номинации (1):
Лучшая мужская роль на ТВ (драма) (Лив Шрайбер)
Золотой глобус, 2015 год
Номинации (2):
Лучшая мужская роль на ТВ (драма) (Лив Шрайбер)
Лучший актёр второго плана мини-сериала или фильма на ТВ (Джон Войт)
Эмми, 2015 год
Номинации (1):
Лучшая мужская роль в драматическом сериале (Лив Шрайбер)
Золотой глобус, 2014 год
Победитель (1):
Лучший актёр второго плана мини-сериала или фильма на ТВ ( Джон Войт )
Номинации (1):
Лучшая мужская роль на ТВ (драма) (Лив Шрайбер)
Эмми, 2014 год
Номинации (1):
Лучшая мужская роль второго плана в драматическом сериале (Джон Войт)

Рецензия

О, где же ты, брат?Следуя традициям, сериал, выходящий под эгидой канала «ShowTime» априори считается сильным и успешным проектом, ибо соотношение хороших/плохих проектов кабельного гиганта явно перешивает в пользу первого.«Рэй Донован» очень многообещающая премьера, нужная не только зрителям, постоянно нуждающимся в открытии новых горизонтов интереса, но и самому каналу — и как очередной мощный проект, и как замена уходящему на покой «Декстеру».После просмотра пилотной серии сразу вырисовывается формула, по которой пошли создатели: это на 20 процентов «Клан Сопрано», на 10 процентов «Антураж» и на 70 — «Кровь за кровь» и прочие криминальные истории о сложных взаимоотношениях внутри непростой семьи.Главный герой, имя которого вынесено в заглавие и великолепно исполнено Ливом Шрайбером — своеобразный антикризисный менеджер Голливуда. Именно ему звонит какой-нибудь именитый актер, проснувшись утром с мертвой проституткой и думающий, что его карьере пришел конец. Но приходит Рэй и его команда и вопрос решается в считанные минуты.Помимо же основной «профессии» мистер Донован должен решать огромное количество насущных проблем, будь то семейные вопросы, будь то сложные взаимоотношения с братьями или даже, к примеру, его собственные отец, вышедший из тюрьмы и намеревающийся навести шума в, казалось бы, устоявшейся жизни персонажа.«Рэй Донован» — сильная, стильная криминальная драма, в какой-то степени даже отличающаяся от остальных проектов «ShowTime». Имея привычный для кабельного канала набор из алкоголя, насилия, обнаженки, крови и крепких выражений, сериал делает уклон не в сторону вседозволенности (невозможной на общественных каналах), а в сторону обычной драматичной истории о человеке, в жизни которого ровно столько проблем, сколько может выдержать его сильная натура — и с каждой придется встретиться лицом к лицу, будь то сложные отношения с братом-боксером, болеющим Паркенсоном, будь то не менее сложные отношения с другим братом, перенесшим в детстве травму, на всю жизнь оставившую психологический удар… Да будь это даже жена и дети или очередной публичный гуляка Города Ангелов, оказавшийся не в том месте не в то время… Со всем водоворотом проблем просто невозможно разобраться и приходится выбирать между тем, что важно и теми, кто дорог — такова судьба Рэя Донована.Однако и без проблем в постановке не обошлось! Первое, что бросается в глаза: невозможность за пятьдесят минут передать весь мир главного героя. Сначала нам показывают работу его команды, чрез минуту переносят в мир братских и семейных отношений, а затем подают это так, словно мы смотрим не первую, а семнадатую серию — где все и всё уже знакомо. В итоге получается небольшой дисбаланс — повествование так стремительно забывает о работе героя и его команде, что складывается впечатление, что сначала писалось два сценария — один про голливудского «решателя проблем», а другой про криминальную семью… И только потом их решили совместить.Возможно, дальнейшие серии найдут более плавный баланс между проблемами голливудских звезд и проблемами главного героя, но пока, при всей силе постановки, действие выглядит слишком разрозненным и неуспевающим должным образом показать все свои отличительные черты за отведенное время.Но стоит отметить, что это поправимая в нужных руках проблема.Говоря же о дальнейшей судьбе сериала, хочется верить, что проект найдет своего зрителя и встанет в список успешных шоу канала. Признаюсь, мне бы, если честно, больше хотелось посмотреть на антикризисного менеджера Голливуда, чем на парня с трудными семейными отношениями, но так уж повелось, что у «ShowTime» свой незыблемый и уверенный курс. И если продюсеры дали свет шоу именно с такой жанровой расстановкой как у «Рэя Донована», значит, априори у него есть шанс на успех.

Media Info

Общее
Уникальный идентификатор : 232855030670392101815125451773646257750 (0xAF2E3F647A84FC398D11685B291CBE56)
Полное имя : F:\Рэй Донован\Ray Donovan.2016.S04.WEB-DL.720p.Amedia.[pirat.ca]\Ray Donovan.2016.S04.E01.WEB-DL.720p.Amedia.[pirat.ca].mkv
Формат : Matroska
Версия формата : Version 2
Размер файла : 1,33 Гбайт
Продолжительность : 56 м.
Общий поток : 3390 Кбит/сек
Дата кодирования : UTC 2016-08-03 13:58:46
Программа кодирования : mkvmerge v7.9.0 ('Birds') 64bit
Библиотека кодирования : libebml v1.3.1 + libmatroska v1.4.2Видео
Идентификатор : 1
Формат : AVC
Формат/Информация : Advanced Video Codec
Профиль формата : [email protected]/* */
Параметр CABAC формата : Да
Параметр ReFrames формата : 9 кадров
Идентификатор кодека : V_MPEG4/ISO/AVC
Продолжительность : 56 м.
Битрейт : 3005 Кбит/сек
Ширина : 1280 пикселей
Высота : 720 пикселей
Соотношение сторон : 16:9
Режим частоты кадров : Постоянный
Частота кадров : 25,000 кадров/сек
Цветовое пространство : YUV
Субдискретизация насыщенности : 4:2:0
Битовая глубина : 8 бит
Тип развёртки : Прогрессивная
Бит/(Пиксели*Кадры) : 0.130
Размер потока : 1,18 Гбайт (89%)
Библиотека кодирования : x264 core 144 r2525 40bb568
Настройки программы : cabac=1 / ref=9 / deblock=1:-3:-3 / analyse=0x3:0x133 / me=umh / subme=10 / psy=1 / psy_rd=1.00:0.00 / mixed_ref=1 / me_range=48 / chroma_me=1 / trellis=2 / 8x8dct=1 / cqm=0 / deadzone=21,11 / fast_pskip=1 / chroma_qp_offset=-2 / threads=12 / lookahead_threads=2 / sliced_threads=0 / nr=0 / decimate=1 / interlaced=0 / bluray_compat=0 / constrained_intra=0 / bframes=8 / b_pyramid=2 / b_adapt=2 / b_bias=0 / direct=3 / weightb=1 / open_gop=0 / weightp=2 / keyint=250 / keyint_min=23 / scenecut=40 / intra_refresh=0 / rc=crf / mbtree=0 / crf=17.0 / qcomp=0.60 / qpmin=0 / qpmax=69 / qpstep=4 / ip_ratio=1.30 / pb_ratio=1.20 / aq=3:0.80
Язык : English
Default : Да
Forced : НетАудио #1
Идентификатор : 2
Формат : AC-3
Формат/Информация : Audio Coding 3
Расширение режима : CM (complete main)
Параметр Endianness формата : Big
Идентификатор кодека : A_AC3
Продолжительность : 56 м.
Вид битрейта : Постоянный
Битрейт : 192 Кбит/сек
Каналы : 2 канала
Расположение каналов : Front: L R
Частота : 48,0 КГц
Частота кадров : 31,250 кадров/сек (1536 spf)
Метод сжатия : С потерями
Размер потока : 77,3 Мбайт (6%)
Язык : Russian
Default : Да
Forced : НетАудио #2
Идентификатор : 3
Формат : AC-3
Формат/Информация : Audio Coding 3
Расширение режима : CM (complete main)
Параметр Endianness формата : Big
Идентификатор кодека : A_AC3
Продолжительность : 56 м.
Вид битрейта : Постоянный
Битрейт : 192 Кбит/сек
Каналы : 2 канала
Расположение каналов : Front: L R
Частота : 48,0 КГц
Частота кадров : 31,250 кадров/сек (1536 spf)
Метод сжатия : С потерями
Размер потока : 77,3 Мбайт (6%)
Язык : English
Default : Нет
Forced : НетТекст #1
Идентификатор : 4
Формат : UTF-8
Идентификатор кодека : S_TEXT/UTF8
Идентификатор кодека/Информация : UTF-8 Plain Text
Продолжительность : 53 м.
Битрейт : 73 бит/сек
Count of elements : 683
Размер потока : 29,0 Кбайт (0%)
Язык : Russian
Default : Нет
Forced : НетТекст #2
Идентификатор : 5
Формат : UTF-8
Идентификатор кодека : S_TEXT/UTF8
Идентификатор кодека/Информация : UTF-8 Plain Text
Продолжительность : 55 м.
Битрейт : 50 бит/сек
Count of elements : 783
Размер потока : 20,7 Кбайт (0%)
Язык : English
Default : Нет
Forced : Нет

Скриншот c названием фильма

Скриншоты

Трейлер

Яндекс.Метрика
Рейтинг@Mail.ru