Алиса в Зазеркалье / Alice Through the Looking Glass (Джеймс Бобин / James Bobin) [2016 г., фэнтези, приключения, семейный, WEB-DL, 1080p] Dub (iTunes) + Original (Eng) + Sub (Rus, Eng)

 

Создавать темы 21-Сен-2016 03:17

-Алиса в Зазеркалье / Alice Through the Looking Glass
«Весна - самое время сойти с ума»
-- Производство: США, Великобритания
Год выпуска: 2016 г.
Жанр: фэнтези, приключения, семейный
Продолжительность: 01:53:19Перевод: Профессиональный (полное дублирование) [iTunes]
Оригинальный аудиопоток: английскийРежиссер: Джеймс Бобин / James Bobin-В ролях: Миа Васиковска, Джонни Депп, Хелена Бонем Картер, Энн Хэтэуэй, Саша Барон Коэн, Рис Иванс, Мэтт Лукас, Линдси Дункан, Лео Билл, Джеральдин Джеймс-Описание: На этот раз главной героине предстоит отправиться в путешествие во времени, полное неожиданностей и ярких открытий, чтобы спасти своего друга, Безумного Шляпника.- -Качество видео: WEB-DL
Контейнер: MKV
Стандарт разрешения: 1080p
Видео кодек: H.264/AVC
Аудио кодек: AC3
Видео: 1920x1038 at 23.976 fps, ~5000 kbps avg
Аудио: Russian: 48 kHz, AC3, 3/2 (L,C,R,l,r) + LFE ch, ~384.00 kbps avg |Дубляж, iTunes Russia|
Аудио #2: English: 48 kHz, AC3, 3/2 (L,C,R,l,r) + LFE ch, ~384.00 kbps avg
Cубтитры: Russian (Full-length, Forced iTunes), English (Full-length, Forced)

Знаете ли вы, что...

• Последняя роль Алана Рикмана (1946-2016).
• Рис Иванс и Стивен Фрай играли брата Шерлока Холмса по имени Майкрофт: Иванс в телесериале «Элементарно», Фрай - в фильме Гая Ричи 2011 года «Шерлок Холмс: Игра теней».
• Очередной проект, в котором принимают участие Саша Барон Коэн и режиссёр Джеймс Бобин. Они вместе работали над фильмом «Али Джи» и придумывали для него персонажи.
• Время в исполнении Саши Барона Коэна дарит Ирацибетте в исполнении Хелены Бонэм-Картер механическое устройство, изображающее казнь через отсечение головы. Юмор ситуации можно усмотреть в том, что первой главной ролью актрисы в кинематографе была роль леди Джейн в одноимённой исторической драме Тревора Нанна (1986), где её героиню обезглавили по обвинению в государственной измене.
• Саша Барон Коэн, который сыграл Время, и Мэтт Лукас, исполнитель ролей Труляля и Траляля, играли Тенардье в разных экранизациях «Отверженных» - Коэн в драматическом мюзикле Тома Хупера (2012), а Лукас - на концерте в 2010 году, посвящённом 25-летию выхода на экраны фильма Клода Лелуша с Жаном-Полем Бельмондо в главной роли.
• Последняя роль в кино Алана Рикмана, который скончался за четыре месяца до премьеры. Рикман сыграл бабочку, которая в фильме Тима Бёртона «Алиса в Стране чудес» (2010) была ещё гусеницей.
• Седьмой и последний фильм, в котором вместе снялись Алан Рикман и Хелена Бонем-Картер.
• Джонни Депп, Хелена Бонем-Картер, Алан Рикман, Саша Барон Коэн и Тимоти Сполл играли в фильме Тима Бёртона «Суинни Тодд, демон-парикмахер с Флит-стрит» (2007).
• Девятый совместный фильм Тима Бёртона и Джонни Деппа. Актёр снимался в фильмах «Эдвард Руки-ножницы» (1990), «Эд Вуд» (1994), «Сонная лощина» (1999), «Чарли и шоколадная фабрика» (2005), «Труп невесты» (2005), «Суинни Тодд, демон-парикмахер с Флит-стрит» (2007), «Алиса в Стране чудес» (2010) и «Мрачные тени» (2012).
• Кинокомпания «Walt Disney Studios Motion Pictures» посвятила фильм памяти актёра Алана Рикмана.
• Первое появление Саши Барона Коэна в фильмах компании «Walt Disney».
• Рис Иванс, который играет отца Безумного Шляпника, на четыре года моложе Джонни Деппа, исполнившего роль его сына.
• В фильме занято четыре актёра, игравшие в фильмах о Шерлоке Холмсе. Эндрю Скотт сыграл Джеймса Мориарти в телесериале 'Шерлок', снятом для канала'BBC Wales' (2010), там же в одной из серий роль леди Смолвуд сыграла Линдси Дункан, Рис Иванс исполнил роль Майкрофта Холмса в телесериале 'Элементарно' (2012), а Стивен Фрай сыграл эту роль в детективном боевике Гая Ричи 'Шерлок Холмс: Игра теней' (2011).
• Работа над фильмом была завершена 26 января 2015 года.

Media Info

Код:
Format                      : Matroska
Format version              : Version 4 / Version 2
File size                   : 4.66 GiB
Duration                    : 1h 53mn
Overall bit rate            : 5 891 Kbps
Movie name                  : Alice.Through.the.Looking.Glass.2016.1080p.WEB-DL
Encoded date                : UTC 2016-09-19 20:49:25
Writing application         : mkvmerge v6.0.0 ('Coming Up For Air') built on Jan 20 2013 09:52:00
Writing library             : libebml v1.3.0 + libmatroska v1.4.0
DURATION                    : 01:51:28.144000000
NUMBER_OF_FRAMES            : 1370
NUMBER_OF_BYTES             : 34137
_STATISTICS_WRITING_APP     : mkvmerge v7.1.0 ('Good Love') 64bit built on Jul 27 2014 13:06:55
_STATISTICS_WRITING_DATE_UT : 2016-09-19 18:26:11
_STATISTICS_TAGS            : BPS DURATION NUMBER_OF_FRAMES NUMBER_OF_BYTESVideo
ID                          : 1
Format                      : AVC
Format/Info                 : Advanced Video Codec
Format profile              : [email protected]/*  */
Format settings, CABAC      : Yes
Format settings, ReFrames   : 4 frames
Codec ID                    : V_MPEG4/ISO/AVC
Duration                    : 1h 53mn
Bit rate                    : 5 006 Kbps
Width                       : 1 920 pixels
Height                      : 1 038 pixels
Display aspect ratio        : 1.85:1
Frame rate mode             : Constant
Frame rate                  : 23.976 fps
Color space                 : YUV
Chroma subsampling          : 4:2:0
Bit depth                   : 8 bits
Scan type                   : Progressive
Bits/(Pixel*Frame)          : 0.105
Stream size                 : 3.96 GiB (85%)
Title                       : Alice.Through.the.Looking.Glass.2016.1080p.WEB-DL
Language                    : English
Default                     : Yes
Forced                      : No
Color primaries             : BT.709
Transfer characteristics    : BT.709
Matrix coefficients         : BT.709
Color range                 : LimitedAudio #1
ID                          : 2
Format                      : AC-3
Format/Info                 : Audio Coding 3
Mode extension              : CM (complete main)
Format settings, Endianness : Big
Codec ID                    : A_AC3
Duration                    : 1h 53mn
Bit rate mode               : Constant
Bit rate                    : 384 Kbps
Channel(s)                  : 6 channels
Channel positions           : Front: L C R, Side: L R, LFE
Sampling rate               : 48.0 KHz
Bit depth                   : 16 bits
Compression mode            : Lossy
Stream size                 : 311 MiB (7%)
Title                       : [DUB] DD 5.1 @ 384 kbps (iTunes)
Language                    : Russian
Default                     : Yes
Forced                      : NoAudio #2
ID                          : 3
Format                      : AC-3
Format/Info                 : Audio Coding 3
Mode extension              : CM (complete main)
Format settings, Endianness : Big
Codec ID                    : A_AC3
Duration                    : 1h 53mn
Bit rate mode               : Constant
Bit rate                    : 384 Kbps
Channel(s)                  : 6 channels
Channel positions           : Front: L C R, Side: L R, LFE
Sampling rate               : 48.0 KHz
Bit depth                   : 16 bits
Compression mode            : Lossy
Stream size                 : 311 MiB (7%)
Title                       : [ORIGINAL] DD 5.1 @ 384 kbps
Language                    : English
Default                     : No
Forced                      : NoText #1
ID                          : 4
Format                      : UTF-8
Codec ID                    : S_TEXT/UTF8
Codec ID/Info               : UTF-8 Plain Text
Title                       : Forced
Language                    : Russian
Default                     : Yes
Forced                      : NoText #2
ID                          : 5
Format                      : UTF-8
Codec ID                    : S_TEXT/UTF8
Codec ID/Info               : UTF-8 Plain Text
Title                       : Full-lenth
Language                    : Russian
Default                     : No
Forced                      : NoText #3
ID                          : 6
Format                      : UTF-8
Codec ID                    : S_TEXT/UTF8
Codec ID/Info               : UTF-8 Plain Text
Title                       : Forced
Language                    : English
Default                     : No
Forced                      : NoText #4
ID                          : 7
Format                      : UTF-8
Codec ID                    : S_TEXT/UTF8
Codec ID/Info               : UTF-8 Plain Text
Title                       : Full-length
Language                    : English
Default                     : No
Forced                      : NoMenu
00:00:00.000                : en:Navigating The Wonder
00:04:32.000                : en:Return Home
00:07:24.000                : en:Canceled Plans
00:12:07.000                : en:Through The Looking Glass
00:16:39.000                : en:Old Friends
00:22:47.000                : en:Chronosphere
00:24:59.000                : en:Time's Castle
00:30:17.000                : en:The Grand Clock
00:35:30.000                : en:Arrival Of The Red Queen
00:41:32.000                : en:Ocean Of Time
00:45:20.000                : en:Coronation
00:51:35.000                : en:Warning The Hatter
00:54:11.000                : en:Tea Party With Time
00:57:40.000                : en:Tart Trouble
01:04:18.000                : en:"The Stroke Of Six"
01:09:18.000                : en:Escape From The Asylum
01:12:45.000                : en:Horunvendush Day
01:18:07.000                : en:Red Queen's Lair
01:23:20.000                : en:Changing The Past
01:27:34.000                : en:Running Out Of Time
01:32:16.000                : en:Family Reunion
01:36:40.000                : en:Goodbyes
01:40:13.000                : en:Setting Sail
01:43:14.000                : en:End Credits

Скриншот c названием фильма

Скриншоты

Яндекс.Метрика
Рейтинг@Mail.ru