Брат и Брат 2 :Дилогия (1997,2000) WEB-DL [H.264/1080p-LQ]

 

Создавать темы 20-Сен-2016 13:58

- Брат и Брат 2 :Дилогия (1997 , 2000) WEB-DL [H.264/1080p-LQ]- Производство: Россия / Кинокомпания CTB, Студия Горького, Роскомкино
Жанр: Боевик, Криминал, Драма, Музыка
Режиссер: Алексей Балабанов
Актеры: Сергей Бодров мл., Виктор Сухоруков, Светлана Письмиченко, Мария Жукова, Юрий Кузнецов, Василиса Стрельникова, Константин Анисимов, Алексей Севостьянов, Андрей Федорцов, Андрей Краско, Вячеслав Бутусов, Игорь Шибанов, Сергей Дебижев, Владимир Ермилов, Анатолий Горин, Денис Кириллов, Наталья Львова, Артур Харман, Андрей Розин, Сергей Астахов, Виталий Матвеев, Сергей Чиграков, Артур Арутюнян, Ирина Ракшина, Анатолий Журавлев, Юлия Шубарева, Сергей Мурзин, Игорь Ламба и др.
Описание:
Брат: Демобилизованный из армии, Данила Багров вернулся в родной городок. Но скучная жизнь российской провинции не устраивала его, и он решился податься в Петербург, где, по слухам, уже несколько лет процветает его старший брат. Данила нашел брата. Но все оказалось не так просто — брат был наемным убийцей…
Брат 2: Участвуя в программе на телевидении, Данила Багров встречает своих друзей по Чечне. Одного из них внезапно убивают. Данила знает, что у того были неприятности из-за брата-хоккеиста в Америке. Данила должен разобраться. Теперь его фотография ходит по рукам русской и американской мафии. Новоявленные «Аль Капоне» понимают, что нарвались на профессионала…-Возраст: 16+ (зрителям, достигшим 16 лет)
Рейтинг MPAA: R (лицам до 17 лет обязательно присутствие взрослого)
Продолжительность: 01:35:23 + 02:02:40
Качество видео: WEB-DL 1080p
Видео: AVC/H.264, 1920x1080, ~ 5060kbps , 5120kbps
Аудио: AC3, 6 ch, 384kbps , 448kbps

Mediainfo:

Общее
Уникальный идентификатор                 : 240811155476120908740184426384532070072 (0xB52A8AA18A1413FCA44EC518E5CE5EB8)
Полное имя                               : H:\Раздачи NNM-Club\Брат_ Дилогия (1997,2000)[WEB-DL 1080p]\Брат (1997).mkv
Формат                                   : Matroska
Версия формата                           : Version 4 / Version 2
Размер файла                             : 3,63 Гбайт
Продолжительность                        : 1 ч. 35 м.
Общий поток                              : 5445 Кбит/сек
Название фильма                          : Брат (1997)
Кодирование произвёл                     : andrejpushkaryov
Дата кодирования                         : UTC 2016-01-28 13:31:16
Программа кодирования                    : mkvmerge v8.8.0 ('Wind at my back') 64bit
Библиотека кодирования                   : libebml v1.3.3 + libmatroska v1.4.4 / Lavf57.23.100
Примечание                               : Боевик, Драма, Криминал, Музыка
Видео
Идентификатор                            : 1
Формат                                   : AVC
Формат/Информация                        : Advanced Video Codec
Профиль формата                          : [email protected]
Параметр CABAC формата                   : Да
Параметр ReFrames формата                : 4 кадра
Идентификатор кодека                     : V_MPEG4/ISO/AVC
Продолжительность                        : 1 ч. 35 м.
Битрейт                                  : 5060 Кбит/сек
Ширина                                   : 1920 пикселей
Высота                                   : 1080 пикселей
Соотношение сторон                       : 16:9
Режим частоты кадров                     : Переменный
Частота кадров                           : 25,000 кадров/сек
Цветовое пространство                    : YUV
Субдискретизация насыщенности            : 4:2:0
Битовая глубина                          : 8 бит
Тип развёртки                            : Прогрессивная
Бит/(Пиксели*Кадры)                      : 0.098
Размер потока                            : 3,37 Гбайт (93%)
Язык                                     : Russian
Default                                  : Да
Forced                                   : Нет
colour_range                             : Limited
Основные цвета                           : BT.709
Характеристики трансфера                 : BT.709
Коэффициенты матрицы                     : BT.709
Аудио
Идентификатор                            : 2
Формат                                   : AC-3
Формат/Информация                        : Audio Coding 3
Расширение режима                        : CM (complete main)
Параметр Endianness формата              : Big
Идентификатор кодека                     : A_AC3
Продолжительность                        : 1 ч. 35 м.
Вид битрейта                             : Постоянный
Битрейт                                  : 384 Кбит/сек
Каналы                                   : 6 каналов
Расположение каналов                     : Front: L C R, Side: L R, LFE
Частота                                  : 48,0 КГц
Частота кадров                           : 31,250 кадров/сек (1536 spf)
Метод сжатия                             : С потерями
Размер потока                            : 262 Мбайт (7%)
Язык                                     : Russian
Default                                  : Нет
Forced                                   : Нет
Меню
00:00:00.000                             : en:Глава 1
00:04:59.000                             : en:Глава 2
00:10:21.000                             : en:Глава 3
00:16:45.000                             : en:Глава 4
00:22:24.000                             : en:Глава 5
00:28:22.000                             : en:Глава 6
00:33:37.000                             : en:Глава 7
00:39:21.000                             : en:Глава 8
00:44:59.000                             : en:Глава 9
00:50:41.000                             : en:Глава 10
00:56:22.000                             : en:Глава 11
01:02:28.000                             : en:Глава 12
01:08:49.000                             : en:Глава 13
01:14:25.000                             : en:Глава 14
01:19:56.000                             : en:Глава 15
01:26:49.000                             : en:Глава 16
01:31:44.000                             : en:Глава 17
Общее
Уникальный идентификатор                 : 252031344621007035920682790236170799487 (0xBD9B78AA96B7D108BE0614C35950C97F)
Полное имя                               : H:\Раздачи NNM-Club\Брат_ Дилогия (1997,2000)[WEB-DL 1080p]\Брат 2 (2000).mkv
Формат                                   : Matroska
Версия формата                           : Version 4 / Version 2
Размер файла                             : 4,77 Гбайт
Продолжительность                        : 2 ч. 2 м.
Общий поток                              : 5570 Кбит/сек
Название фильма                          : Брат 2 (2000)
Кодирование произвёл                     : andrejpushkaryov
Дата кодирования                         : UTC 2016-01-28 13:39:11
Программа кодирования                    : mkvmerge v8.8.0 ('Wind at my back') 64bit
Библиотека кодирования                   : libebml v1.3.3 + libmatroska v1.4.4 / Lavf57.23.100
Примечание                               : Боевик, Драма, Криминал, Музыка
Видео
Идентификатор                            : 1
Формат                                   : AVC
Формат/Информация                        : Advanced Video Codec
Профиль формата                          : [email protected]
Параметр CABAC формата                   : Да
Параметр ReFrames формата                : 4 кадра
Идентификатор кодека                     : V_MPEG4/ISO/AVC
Продолжительность                        : 2 ч. 2 м.
Битрейт                                  : 5120 Кбит/сек
Ширина                                   : 1920 пикселей
Высота                                   : 1080 пикселей
Соотношение сторон                       : 16:9
Режим частоты кадров                     : Постоянный
Частота кадров                           : 25,000 кадров/сек
Цветовое пространство                    : YUV
Субдискретизация насыщенности            : 4:2:0
Битовая глубина                          : 8 бит
Тип развёртки                            : Прогрессивная
Бит/(Пиксели*Кадры)                      : 0.099
Размер потока                            : 4,39 Гбайт (92%)
Язык                                     : Russian
Default                                  : Да
Forced                                   : Нет
colour_range                             : Limited
Основные цвета                           : BT.709
Характеристики трансфера                 : BT.709
Коэффициенты матрицы                     : BT.709
Аудио
Идентификатор                            : 2
Формат                                   : AC-3
Формат/Информация                        : Audio Coding 3
Расширение режима                        : CM (complete main)
Параметр Endianness формата              : Big
Идентификатор кодека                     : A_AC3
Продолжительность                        : 2 ч. 2 м.
Вид битрейта                             : Постоянный
Битрейт                                  : 448 Кбит/сек
Каналы                                   : 6 каналов
Расположение каналов                     : Front: L C R, Side: L R, LFE
Частота                                  : 48,0 КГц
Частота кадров                           : 31,250 кадров/сек (1536 spf)
Метод сжатия                             : С потерями
Размер потока                            : 393 Мбайт (8%)
Язык                                     : Russian
Default                                  : Нет
Forced                                   : Нет
Меню
00:00:00.000                             : en:Глава 1
00:07:38.000                             : en:Глава 2
00:13:07.000                             : en:Глава 3
00:18:14.000                             : en:Глава 4
00:24:38.000                             : en:Глава 5
00:31:27.000                             : en:Глава 6
00:38:10.000                             : en:Глава 7
00:44:05.000                             : en:Глава 8
00:51:29.000                             : en:Глава 9
00:57:08.000                             : en:Глава 10
01:02:41.000                             : en:Глава 11
01:08:01.000                             : en:Глава 12
01:14:26.000                             : en:Глава 13
01:22:00.000                             : en:Глава 14
01:28:24.000                             : en:Глава 15
01:33:59.000                             : en:Глава 16
01:39:27.000                             : en:Глава 17
01:45:27.000                             : en:Глава 18
01:52:06.000                             : en:Глава 19
01:56:34.000                             : en:Глава 20
Скриншоты:Брат
-Скриншоты:Брат 2
Яндекс.Метрика
Рейтинг@Mail.ru