Ночь с Бет Купер (Я люблю тебя, Бет Купер) / I Love You, Beth Cooper (Крис Коламбус / Chris Columbus) [2009 г., комедия, BDRip, 720p] DVO [НТВ+]

 

Создавать темы 20-Сен-2016 03:40

-Ночь с Бет Купер (Я люблю тебя, Бет Купер) / I Love You, Beth Cooper-- Производство: Канада, США
Год выпуска: 2009 г.
Жанр: комедия
Продолжительность: 01:41:49Мировая премьера: 10 июля 2009
Перевод: Профессиональный (двухголосый, закадровый) [НТВ+]
Режиссер: Крис Коламбус / Chris Columbus-В ролях: Хайден Панеттьери, Алан Рак, Сэмм Ливайн, Синтия Стивенсон, Лоурен Лондон, Шоун Робертс, Пол Руст, Андреа Сэвадж, Лоурен Сторм-Описание: Главный ботаник и неудачник класса понимает, что терять ему уже нечего, поэтому он использует свою речь на церемонии вручения дипломов для того, чтобы публично признаться в любви к Бет Купер, королеве красоты и капитану чирлидерш. После чего вместе с девушкой оказывается вовлечен в серию злоключений.-
Качество видео: BDRip
Контейнер: MKV
Стандарт разрешения: 720p
Видео кодек: MPEG4 AVC
Аудио кодек: AC3
Видео: ~4642 kb/s, 1280x688, 23,976 (24000/1001) fps
Аудио: AC3, 48,0 KHz, 256 kb/s, 6 ch
Cубтитры: отсутствуют

Доп. информация

В своём послесловии к книге, выпущенной в 2007 году, автор Ларри Дойл написал, что в начале он хотел создать фильм с подобным сюжетом. Когда эта его идея не вызвала большого энтузиазма, он опубликовал её в виде романа, который достаточно быстро заинтересовал продюсеров. Те предложили самому автору адаптировать произведение для большого экрана, и, таким образом, его оригинальная задумка стала реальностью.
Школа в фильме Buffalo Glenn High School основана на реально существующей школе Buffalo Grove High School из родного города автора книги и сценария Ларри Дойла.
Съёмки картины прошли весной 2008 года сразу в нескольких школах канадского Ванкувера и его окрестностях.

Рецензия

She is so sweet:)Болел… Было скучно… От скуки решил открыть для себя новый жанр «Телесериал», а конкретно телесериал «Герои». Очень понравилась актриса, которую раньше не видел на экране. Так узнал о Хайден Панетьерри, открыл её фильмографию и наткнулся и на этот фильм.После просмотра много положительных эмоций, конечно сюжет гениальностью не блещет, но игра актёров, а конкретно главных героев, заслуживает всяческих похвал. Персонаж сыгранный Хайден получился такой живой и милый, пожалуй для меня эта актриса стала самым большим открытием этого года. Игра Пола Руста в целом тоже понравилась. Единственное, не понравились шутки из фильма, да и юмор в целом… Какой то он наигранный что ли, детский… Поэтому для меня это скорее не комедия, а молодёжная мелодрама о любви неудачника к прекрасной девушке.Фильм всё же посмотреть стОит, ведь в последнее время среди обилия триллеров, ужастиков и боевиков, редко можно встретить такой добрый и позитивный фильм.

Media Info

Общее
Уникальный идентификатор : 200800124257753603629805857696056847125 (0x9710B27CA5BCB28AA1E9B91E358FAB15)
Полное имя : E:\Ночь с Бет Купер\I Love You, Beth Cooper.2009.BDRip720p.[pirat.ca].mkv
Формат : Matroska
Версия формата : Version 2
Размер файла : 3,48 Гбайт
Продолжительность : 1 ч. 41 м.
Общий поток : 4898 Кбит/сек
Дата кодирования : UTC 2016-09-18 08:25:35
Программа кодирования : mkvmerge v5.3.0 ('I could have danced') built on Feb 9 2012 10:38:07
Библиотека кодирования : libebml v1.2.3 + libmatroska v1.3.0Видео
Идентификатор : 1
Формат : AVC
Формат/Информация : Advanced Video Codec
Профиль формата : [email protected]/* */
Параметр CABAC формата : Да
Параметр ReFrames формата : 5 кадров
Режим смешивания : Header stripping
Идентификатор кодека : V_MPEG4/ISO/AVC
Продолжительность : 1 ч. 41 м.
Битрейт : 4642 Кбит/сек
Ширина : 1280 пикселей
Высота : 688 пикселей
Соотношение сторон : 1,85:1
Режим частоты кадров : Постоянный
Частота кадров : 23,976 (24000/1001) кадра/сек
Цветовое пространство : YUV
Субдискретизация насыщенности : 4:2:0
Битовая глубина : 8 бит
Тип развёртки : Прогрессивная
Бит/(Пиксели*Кадры) : 0.220
Размер потока : 3,23 Гбайт (93%)
Библиотека кодирования : x264 core 77 r1292 e381f6d
Настройки программы : cabac=1 / ref=5 / deblock=1:0:0 / analyse=0x3:0x113 / me=umh / subme=9 / psy=1 / psy_rd=1.0:0.2 / mixed_ref=1 / me_range=16 / chroma_me=1 / trellis=2 / 8x8dct=1 / cqm=0 / deadzone=21,11 / chroma_qp_offset=-3 / threads=6 / nr=0 / decimate=1 / mbaff=0 / constrained_intra=0 / bframes=3 / b_pyramid=0 / b_adapt=1 / b_bias=0 / direct=3 / wpredb=1 / keyint=250 / keyint_min=25 / scenecut=40 / rc_lookahead=40 / rc=2pass / mbtree=1 / bitrate=4642 / ratetol=1.0 / qcomp=0.60 / qpmin=10 / qpmax=51 / qpstep=4 / cplxblur=20.0 / qblur=0.5 / ip_ratio=1.40 / aq=1:1.00
Язык : English
Default : Да
Forced : НетАудио
Идентификатор : 2
Формат : AC-3
Формат/Информация : Audio Coding 3
Расширение режима : CM (complete main)
Параметр Endianness формата : Big
Режим смешивания : Header stripping
Идентификатор кодека : A_AC3
Продолжительность : 1 ч. 41 м.
Вид битрейта : Постоянный
Битрейт : 256 Кбит/сек
Каналы : 6 каналов
Расположение каналов : Front: L C R, Side: L R, LFE
Частота : 48,0 КГц
Частота кадров : 31,250 кадров/сек (1536 spf)
Метод сжатия : С потерями
Размер потока : 186 Мбайт (5%)
Default : Нет
Forced : НетМеню
00:00:00.000 : en:00:00:00.000
00:07:34.328 : en:00:07:34.328
00:12:43.721 : en:00:12:43.721
00:15:25.591 : en:00:15:25.591
00:23:20.273 : en:00:23:20.273
00:28:07.602 : en:00:28:07.602
00:34:03.124 : en:00:34:03.124
00:38:58.377 : en:00:38:58.377
00:42:56.740 : en:00:42:56.740
00:46:54.311 : en:00:46:54.311
00:50:10.799 : en:00:50:10.799
00:56:27.801 : en:00:56:27.801
00:59:54.465 : en:00:59:54.465
01:03:07.742 : en:01:03:07.742
01:07:24.206 : en:01:07:24.206
01:13:03.587 : en:01:13:03.587
01:20:14.059 : en:01:20:14.059
01:25:19.197 : en:01:25:19.197
01:30:42.937 : en:01:30:42.937
01:34:36.671 : en:01:34:36.671
01:41:48.268 : en:01:41:48.268

Скриншот c названием фильма

Скриншоты

Трейлер

Яндекс.Метрика
Рейтинг@Mail.ru