Свадебный угар / Mike and Dave Need Wedding Dates (Джейк Зиманский / Jake Szymanski) [2016 г., комедия, WEB-DL, 1080p] Dub iTunes

 

Создавать темы 17-Сен-2016 03:18

-Свадебный угар / Mike and Dave Need Wedding Dates-- Производство: США, 20th Century Fox Film Corporation, ...
Год выпуска: 2016 г.
Жанр: комедия
Продолжительность: 01:38:49Мировая премьера: 7 июля 2016
Российская премьера: 7 июля 2016, «Двадцатый Век Фокс СНГ»
Перевод: Профессиональный (полное дублирование) [Пифагор 2016 по заказу «Двадцатый Век Фокс СНГ»]
Режиссер: Джейк Зиманский / Jake Szymanski-В ролях: Зак Эфрон, Адам Дивайн, Анна Кендрик, Обри Плаза, Стивен Рут, Стефани Фэраси, Стефани Бирд, Сэм Ричардсон, Элис Веттерлунд, Лавелл Кроуфорд-Описание: Братья-тусовщики Майк и Дэйв дают в интернете объявление о поиске пар, чтобы отправиться на свадьбу сестры на Гавайях. Они надеются на дикий отрыв, но выбранный ими дуэт девушек оказывается совершенно неконтролируемым, готовым превратить праздник в настоящий ад.-
Качество видео: WEB-DL
Контейнер: MKV
Стандарт разрешения: 1080p
Видео кодек: MPEG4 AVC
Аудио кодек: AC3
Видео: AVC/H.264, 1914x800 (2.40:1), 4442 kb/s, 23.976 fps
Аудио: 48 kHz, AC3 Dolby Digital, 3/2 (L,C,R,l,r) + LFE ch, ~384 kbps
Cубтитры: отсутствуют

Доп. информация

Съёмки проходили на территории отеля «Turtle Bay Resort» на острове Оаху Гавайского архипелага.
Зак Эфрон и Обри Плаза вместе сыграли в комедии Дэна Мазера «Дедушка лёгкого поведения» (2016).
В жизни Анна Кендрик и Обри Плаза очень дружны. Они вместе снимались в фильмах Эдгара Райта «Скотт Пилигрим против всех» (2010) и Джеффа Бэйна «Если твоя девушка — зомби» (2014).
Роль в фильме предложили актёру и стендап-комику ТиДжею Миллеру, но он предпочёл съёмки в фантастическом боевике Тима Миллера «Дэдпул» (2016).
Анна Кендрик и Адам Дивайн играли в музыкальных комедиях Джейсона Мура «Идеальный голос» (2012) и Элизабет Бэнкс «Идеальный голос 2» (2015).
В короткометражке 2014 года, снятой в качестве рекламного трейлера комедии Николаса Столлера «Соседи. На тропе войны» (2014) Зак Эфрон говорит Адаму Дивайну, что они могли бы жить, как братья. В фильме «Свадебный угар» (2016) эти актёры играют братьев.
Третья комедия 2016 года с участием Зака Эфрона. Ещё двумя являются фильмы Дэна Мазера «Дедушка лёгкого поведения» и Николаса Столлера «Соседи. На тропе войны 2».
Сцены прыжка на мотовездеходе и свадебной церемонии снимали на территории Коалоа Ранч на Гавайях. Сцены на мотовездеходе снимали в той же местности, где Стивен Спилберг снимал «Парк Юрского периода» (1993), а Колин Треворроу — «Мир Юрского периода» (2015). Свадьбу снимали напротив «The Hukilau Cafe» из романтической комедии Питера Сигала «50 первых поцелуев» (2004).

Рецензия

Я думал… а ты Мишель Пфайфер из «Лица со шрамом»…… Тот парень, который погиб в авиакатастрофе от рака и спида…Не умею я писать рецензии, да и наверно это моя первая будет, но хочу сказать, что фильм мне понравился.!!!Скажу так, игра актеров мне понравилась, ну люблю я Анну Кендрик, с ее появления в Идеальном голосе. Не знаю почему ее недолюбливают многие, но комедии ее золотая жила. В них она супер и лучшая ее пара это Зак Эфрон! Он конечно красавчик. Думаю его роли будут все круче и круче.Юмора в фильме полно, есть и пошловатый, а есть и легкий и все все в тему. Нет отвращения, как например в юморе «Братья из Гримсби».Вообщем мне очень очень понравилось была и романтика и комедия и смешные остроты, если хотите расслабиться, посмеяться вечерком, то смотреть можно.Спасибо всем кто дочитал мою первую, не слишком полную рецензию.9 из 10

Media Info

Общее
Уникальный идентификатор : 197804103901768335440784543984912189364 (0x94CFAF475DB77697BEC0D8864A9C47B4)
Полное имя : F:\Свадебный угар\Svadebnyj Ugar.2016.WEB-DL.1080p.[pirat.ca].mkv
Формат : Matroska
Версия формата : Version 2
Размер файла : 3,40 Гбайт
Продолжительность : 1 ч. 38 м.
Общий поток : 4932 Кбит/сек
Дата кодирования : UTC 2016-09-15 21:13:19
Программа кодирования : mkvmerge v5.3.0 ('I could have danced') built on Feb 9 2012 10:38:07
Библиотека кодирования : libebml v1.2.3 + libmatroska v1.3.0Видео
Идентификатор : 1
Формат : AVC
Формат/Информация : Advanced Video Codec
Профиль формата : [email protected]/* */
Параметр CABAC формата : Да
Параметр ReFrames формата : 5 кадров
Идентификатор кодека : V_MPEG4/ISO/AVC
Продолжительность : 1 ч. 38 м.
Битрейт : 4450 Кбит/сек
Ширина : 1914 пикселей
Высота : 800 пикселей
Соотношение сторон : 2,40:1
Режим частоты кадров : Постоянный
Частота кадров : 24,000 кадра/сек
Цветовое пространство : YUV
Субдискретизация насыщенности : 4:2:0
Битовая глубина : 8 бит
Тип развёртки : Прогрессивная
Бит/(Пиксели*Кадры) : 0.121
Размер потока : 3,07 Гбайт (90%)
Язык : English
Default : Да
Forced : Нет
Цветовой диапазон : Limited
Основные цвета : BT.709
Характеристики трансфера : BT.709
Коэффициенты матрицы : BT.709Аудио
Идентификатор : 2
Формат : AC-3
Формат/Информация : Audio Coding 3
Расширение режима : CM (complete main)
Параметр Endianness формата : Big
Идентификатор кодека : A_AC3
Продолжительность : 1 ч. 38 м.
Вид битрейта : Постоянный
Битрейт : 384 Кбит/сек
Каналы : 6 каналов
Расположение каналов : Front: L C R, Side: L R, LFE
Частота : 48,0 КГц
Частота кадров : 31,250 кадров/сек (1536 spf)
Метод сжатия : С потерями
Размер потока : 271 Мбайт (8%)
Заголовок : Пифагор 2016
Язык : Russian
Default : Да
Forced : ДаМеню
00:00:00.000 : en:1
00:03:38.510 : en:2
00:08:11.824 : en:3
00:11:25.100 : en:4
00:17:28.338 : en:5
00:22:32.475 : en:6
00:27:21.430 : en:7
00:31:28.176 : en:8
00:35:22.201 : en:9
00:38:16.208 : en:10
00:41:25.438 : en:11
00:44:24.533 : en:12
00:50:21.806 : en:13
00:54:11.827 : en:14
00:56:52.654 : en:15
01:01:15.124 : en:16
01:04:43.207 : en:17
01:08:23.051 : en:18
01:12:27.879 : en:19
01:16:32.331 : en:20
01:21:07.606 : en:21
01:25:29.534 : en:22
01:28:44.979 : en:23
01:33:50.075 : en:24

Скриншот c названием фильма

Скриншоты

Трейлер

Яндекс.Метрика
Рейтинг@Mail.ru