Магия лунного света / Magic in the Moonlight (Вуди Аллен / Woody Allen) [2014 г., мелодрама, комедия, BDRip-AVC] Dub [Пифагор 2014 / Лицензия BD RUS]

 

Создавать темы 17-Сен-2016 03:01

-Магия лунного света / Magic in the Moonlight-- Производство: США, Великобритания, Dippermouth, Gravier Productions, Perdido Productions, Ske-Dat-De-Dat Productions
Год выпуска: 2014 г.
Жанр: мелодрама, комедия
Продолжительность: 01:37:37Мировая премьера: 25 июля 2014
Российская премьера: 25 сентября 2014, «Централ Партнершип»
Дата выхода DVD: 19 марта 2015, «CD Land»
Перевод: Профессиональный (полное дублирование) [Пифагор 2014 / Лицензия BD RUS]
Режиссер: Вуди Аллен / Woody Allen-В ролях: Колин Фёрт, Эмма Стоун, Антония Кларк, Наташа Эндрюс, Валери Больё, Питер Уоллаш, Юрген Цвингель, Вольфганг Писсорс, Себастьен Сиро, Саймон МакБерни-Описание: 1928 год. Выдающийся иллюзионист по просьбе своего друга и коллеги приезжает на Лазурный Берег разоблачить молодую привлекательную шарлатанку, якобы умеющую вызывать духов умерших. Она очаровала богатого наследника и его мать-вдову, а это не устраивает других членов семьи.-
Качество видео: BDRip-AVC
Контейнер: MKV
Видео кодек: MPEG4 AVC
Аудио кодек: AC3
Видео: 1060x444 (2,40:1), 23,976 fps, 2301 Кbps, 0.204 bit/pixel
Аудио: 48 kHz, AC3 Dolby Digital, 3/2 (L,C,R,l,r) + LFE ch, 448.00 kbps
Аудио #2: 48 kHz, AC3 Dolby Digital, 3/2 (L,C,R,l,r) + LFE ch, 448.00 kbps
Cубтитры: Русские, английские
Формат субтитров: softsub (SRT)
Доп. информация о субтитрах: включаемые (Full + SDH + SDH-Colored)

Доп. информация

При показе начальных титров фильма звучит классическая музыка — это отрывки из балета «Весна священная» (Игорь Стравинский) и второй части Симфонии N 9 (Людвиг ван Бетховен). Позже Бетховен будет снова звучать в фильме.
Четвёртый фильм Вуди Аллена после фильмов «Манхэттен» (1979), «Кое-что еще» (2003) и «Жасмин» (2013), снятый в анаморфированном формате «Синемаскоп».
Эмма Стоун говорит, что в работе над образом Софи и его воплощением на экране черпала вдохновение в игре Дайан Китон, актрисы, сыгравшей во многих фильмах Вуди Аллена.
В сценарии упоминаются как минимум три композиции группы «Queen» — «Made in Heaven», «A Kind of Magic„и «It`s Late“».
Одной из машин Ховарда является красная «Alfa Romeo 1600 Sport» выпуска 1928 года.
Стэнли (Колин Фёрт) говорит в фильме, что его любимое музыкальное произведение 7-ая симфония Людвига ван Бетховена. Под эту композицию Колин Фёрт произносит речь в конце фильма «Король говорит!» (2010).
Вей Линг Су, псевдоним Стэнли, — это отсылка к Чэну Ляньсу, как называл себя на сцене иллюзионист Уильям Элсворт Робинсон (1861-1918), весьма популярный в Соединённых Штатах и в Европе. Как и Стэнли, Чэн Ляньсу разоблачал спиритуалистов и даже написал об этом книгу, которая вышла в 1898 году. Разница заключается в отношении Стэнли и Робинсона к своему сценическому образу. В фильме окружающим известно, что Вей Линг Су — это на самом деле Стэнли. Робинсон к своему образу относился очень ревниво и при посторонних не выходил из него ни на секунду. Робинсон погиб из-за несчастного случая во время фокуса с ловлей пули. «Господи, в меня попали» — это были последние слова в его жизни и первые, что Робинсон произнёс на сцене по-английски за 19 лет.
По большому счёту, своим пессимизмом и взглядами на жизнь Стэнли обязан работам Фридриха Ницше (1844-1900), известного немецкого мыслителя, который неоднократно упоминается в фильме.
В одном из эпизодов фильма Стэнли и Софи прячутся от проливного дождя в здании старой обсерватории. В фильме Вуди Аллена «Манхэттен» (1979) есть аналогичный эпизод.
Второй фильм, в котором Айлин Эткинс играет мать Колина Фёрта. Первым стала комедия Дэнни Гордона «Чего хочет девушка» (2003).
Во время первого спиритического сеанса со стола поднимается свеча, начинает парить в воздухе, а Ховард хватает её. В этот момент отчётливо слышно, как рвётся нить, к которой свеча была привязана. После этого на оборванной нити отражается пламя, и нить становится видна зрителю.

Рецензия

Тёплая «ламповая» атмосфераПросмотр этого фильма для меня был способом скоротать время. И я не пожалел этого времени. В небольшом зале кинотеатра было не больше тридцати человек и действие на экране сразу задало тихий, умиротворяющий тон.Вуди Аллен показал приятное глазу действо, выполненное в ретро стиле. Добротная музыка, хорошие актёры, добрая (пусть и предсказуемая) история.Великолепно выглядит Колин Фёрт в образе прожжённого циника, мила и приятна глазу Эмма Стоун, изображающая медиума, да и остальные персонажи выглядят соответствующе обстановке и появляются на экране строго когда нужно. И луна, напоминающая, что в жизни всё же есть место мечте, а не только сухому прагматизму.Это добрый фильм, пусть для меня он оказался предсказуемым, но это даже хорошо. Когда захочется расслабиться, окунуться в атмосферу наполненную светом и теплом, то стоит посмотреть этот фильм. Да и какой-нибудь другой фильм Аллена, пожалуй, тоже.9 из 10

Рецензия

Общее
Уникальный идентификатор : 211555257291880332261208496163729511265 (0x9F280F7C5836F2AAB955E30BC8951361)
Полное имя : C:\герои 7\Магия лунного света\Magija Lunnogo Sveta.2014.BDRip-AVC.[pirat.ca].mkv
Формат : Matroska
Версия формата : Version 2
Размер файла : 2,18 Гбайт
Продолжительность : 1 ч. 37 м.
Общий поток : 3196 Кбит/сек
Название фильма : Magic in the Moonlight (2014)
Дата кодирования : UTC 2016-09-16 19:03:30
Программа кодирования : mkvmerge v5.3.0 ('I could have danced') built on Feb 9 2012 10:38:07
Библиотека кодирования : libebml v1.2.3 + libmatroska v1.3.0Видео
Идентификатор : 1
Формат : AVC
Формат/Информация : Advanced Video Codec
Профиль формата : [email protected]/* */
Параметр CABAC формата : Нет
Параметр ReFrames формата : 9 кадров
Идентификатор кодека : V_MPEG4/ISO/AVC
Продолжительность : 1 ч. 37 м.
Битрейт : 2301 Кбит/сек
Ширина : 1060 пикселей
Высота : 444 пикселя
Соотношение сторон : 2,40:1
Режим частоты кадров : Постоянный
Частота кадров : 23,976 (24000/1001) кадра/сек
Цветовое пространство : YUV
Субдискретизация насыщенности : 4:2:0
Битовая глубина : 8 бит
Тип развёртки : Прогрессивная
Бит/(Пиксели*Кадры) : 0.204
Размер потока : 1,53 Гбайт (70%)
Библиотека кодирования : x264 core 128 r2216M 198a7ea
Настройки программы : cabac=0 / ref=10 / deblock=1:-2:-2 / analyse=0x3:0x133 / me=esa / subme=9 / psy=1 / psy_rd=1.05:0.10 / mixed_ref=1 / me_range=48 / chroma_me=1 / trellis=2 / 8x8dct=1 / cqm=0 / deadzone=21,11 / fast_pskip=0 / chroma_qp_offset=-3 / threads=8 / lookahead_threads=1 / sliced_threads=0 / nr=0 / decimate=1 / interlaced=0 / bluray_compat=0 / constrained_intra=0 / bframes=11 / b_pyramid=1 / b_adapt=2 / b_bias=0 / direct=3 / weightb=1 / open_gop=0 / weightp=2 / keyint=250 / keyint_min=23 / scenecut=40 / intra_refresh=0 / rc_lookahead=40 / rc=2pass / mbtree=0 / bitrate=2301 / ratetol=1.0 / qcomp=0.72 / qpmin=0 / qpmax=69 / qpstep=4 / cplxblur=20.0 / qblur=0.5 / vbv_maxrate=50000 / vbv_bufsize=62500 / nal_hrd=none / ip_ratio=1.35 / pb_ratio=1.25 / aq=1:0.80
Язык : English
Default : Да
Forced : НетАудио #1
Идентификатор : 2
Формат : AC-3
Формат/Информация : Audio Coding 3
Расширение режима : CM (complete main)
Параметр Endianness формата : Big
Идентификатор кодека : A_AC3
Продолжительность : 1 ч. 37 м.
Вид битрейта : Постоянный
Битрейт : 448 Кбит/сек
Каналы : 6 каналов
Расположение каналов : Front: L C R, Side: L R, LFE
Частота : 48,0 КГц
Частота кадров : 31,250 кадров/сек (1536 spf)
Метод сжатия : С потерями
Задержка видео : 10 с.
Размер потока : 313 Мбайт (14%)
Заголовок : Dub | DD 5.1 @ 448 kbps - BD RUS
Язык : Russian
Default : Да
Forced : НетАудио #2
Идентификатор : 3
Формат : AC-3
Формат/Информация : Audio Coding 3
Расширение режима : CM (complete main)
Параметр Endianness формата : Big
Идентификатор кодека : A_AC3
Продолжительность : 1 ч. 37 м.
Вид битрейта : Постоянный
Битрейт : 448 Кбит/сек
Каналы : 6 каналов
Расположение каналов : Front: L C R, Side: L R, LFE
Частота : 48,0 КГц
Частота кадров : 31,250 кадров/сек (1536 spf)
Метод сжатия : С потерями
Размер потока : 313 Мбайт (14%)
Заголовок : Original | DD 5.1 @ 448 kbps
Язык : English
Default : Нет
Forced : НетТекст #1
Идентификатор : 4
Формат : UTF-8
Идентификатор кодека : S_TEXT/UTF8
Идентификатор кодека/Информация : UTF-8 Plain Text
Язык : Russian
Default : Нет
Forced : НетТекст #2
Идентификатор : 5
Формат : UTF-8
Идентификатор кодека : S_TEXT/UTF8
Идентификатор кодека/Информация : UTF-8 Plain Text
Заголовок : Full
Язык : English
Default : Нет
Forced : НетТекст #3
Идентификатор : 6
Формат : UTF-8
Идентификатор кодека : S_TEXT/UTF8
Идентификатор кодека/Информация : UTF-8 Plain Text
Заголовок : SDH
Язык : English
Default : Нет
Forced : НетТекст #4
Идентификатор : 7
Формат : UTF-8
Идентификатор кодека : S_TEXT/UTF8
Идентификатор кодека/Информация : UTF-8 Plain Text
Заголовок : SDH-Colored
Язык : English
Default : Нет
Forced : НетМеню
00:00:00.000 : en:Chapter 1
00:09:37.493 : en:Chapter 2
00:16:11.595 : en:Chapter 3
00:20:17.633 : en:Chapter 4
00:26:40.724 : en:Chapter 5
00:32:47.966 : en:Chapter 6
00:37:48.599 : en:Chapter 7
00:43:56.258 : en:Chapter 8
00:49:36.556 : en:Chapter 9
00:53:57.192 : en:Chapter 10
00:59:15.385 : en:Chapter 11
01:05:28.674 : en:Chapter 12
01:10:43.030 : en:Chapter 13
01:18:20.195 : en:Chapter 14
01:24:43.995 : en:Chapter 15
01:29:39.665 : en:Chapter 16

Скриншот c названием фильма

Скриншоты

Трейлер

Яндекс.Метрика
Рейтинг@Mail.ru