[ Сегодня на трекере фрилич! Идет свободное скачивание без начисления Download ]

Игрушки / Toys (Барри Левинсон / Barry Levinson) [1992 г., фэнтези, боевик, драма, комедия, WEB-DLRip] MVO [«Селена Интернешнл» (ОРТ)] + DVO [Премьер Видео Фильм (VHS)]

 

Создавать темы 16-Сен-2016 03:00

-Игрушки / Toys-- Производство: США, 20th Century Fox Film Corporation, Baltimore Pictures, ...
Год выпуска: 1992 г.
Жанр: фэнтези, боевик, драма, комедия
Продолжительность: 02:01:50Мировая премьера: 18 декабря 1992
Дата выхода DVD: 12 марта 2009, «Двадцатый Век Фокс СНГ»
Перевод: Профессиональный (многоголосый, закадровый) [«Селена Интернешнл» (ОРТ)]
Перевод 2: Профессиональный (двухголосый, закадровый) [Премьер Видео Фильм (VHS)]
Режиссер: Барри Левинсон / Barry Levinson-В ролях: Робин Уильямс, Майкл Гэмбон, Джоан Кьюсак, Робин Райт, ЭлЭл Кул Джей, Дональд О’Коннор, Артур Мэлет, Джек Уорден, Деби Мейзар-Описание: Никто не любит игрушки так, как Лесли Зиво. Он сам их придумывает и тестирует на фабрике своего отца. Внезапно отец Зиво умирает, и самая большая компания по производству игрушек в стране переходит по наследству к дяде Лесли — армейскому генералу. Как оказалось, у дяди свои планы в отношении семейного бизнеса. Злобный генерал собирается наладить производство миниатюрной военной техники. Теперь Лесли предстоит сделать все возможное, чтобы отстоять фабрику от посягательств своего злобного родственника-милитариста.-
Качество видео: WEB-DLRip
Контейнер: AVI
Видео кодек: XviD
Аудио кодек: AC3
Видео: 720x400 (1.80:1), 23.976 fps, XviD build 73 ~1296 kbps avg, 0.19 bit/pixel
Аудио: 48 kHz, AC3 Dolby Digital, 2/0 (L,R) ch, ~192 kbp
Аудио #2: 48 kHz, AC3 Dolby Digital, 2/0 (L,R) ch, ~192 kbps
Cубтитры: отсутствуют

Награды

Оскар, 1993 год
Номинации (2):
Лучшие декорации
Лучшие костюмы
Берлинский кинофестиваль, 1993 год
Номинации (1):
Золотой Медведь
Сатурн, 1993 год
Номинации (6):
Лучший фэнтези-фильм
Лучший актер (Майкл Гэмбон)
Лучший актер (Робин Уильямс)
Лучшая актриса второго плана (Робин Райт)
Лучшие костюмы
Лучшая музыка

Рецензия

Этот фильм дает небывалый заряд поцифизма и поднимает антивоенное настроение. Так и хочется после такого кино выйти на улицу под антивоенными флагами.
Я думаю, что Барри Левинсон не ошибся, установив жанром своего киношедевра комедию. Так он в весьма веселых, порой просто «игрушечных», тонах затрагивает самые сложные и опасные темы милитаризма и антимилитаризма. Не ошибся он и взяв на главную роль Робина Уильямса — человека, который во всех ролях безоговорочно достоверен, ибо играет не только лицом, но и душой. Остальные актеры создают вполне солидный фон для раскрытия важной темы.«Игрушки» — увлекательное, иногда веселое, но все же умное, интеллектуальное кино, насыщенное бесподобной музыкой, которая просто выворачивает душу на изнанку. Великолепные актерские работы, в особенности дуэта Робин Уильямс-Робин Райт Пенн заставляют поверить в игрушечный мир Левинсона.«Игрушки» из разряда тех незабываемых фильмов, которые нужно посмотреть. Обязательно. Не смотрите на небольшие кассовые сборы в США — американцы такое кино не понимают. Просто смотрите фильм. ОН очень, очень хорош.

Media Info

Общее
Полное имя : G:\Игрушки\Igrushki.1992.WEB-DLRip.[pirat.ca].avi
Формат : AVI
Формат/Информация : Audio Video Interleave
Размер файла : 1,44 Гбайт
Продолжительность : 2 ч. 1 м.
Общий поток : 1694 Кбит/сек
Название фильма : Igrushki.1992.WEB-DLRip.[pirat.ca]
Программа кодирования : VirtualDubModRus 1.5.10.2 (build 2542/release)Видео
Идентификатор : 0
Формат : MPEG-4 Visual
Профиль формата : Advanced [email protected]/* */
Параметр BVOP формата : 1
Параметр QPel формата : Нет
Параметр GMC формата : Без точки перехода
Параметр матрицы формата : Выборочная
Идентификатор кодека : XVID
Идентификатор кодека/Подсказка : XviD
Продолжительность : 2 ч. 1 м.
Битрейт : 1297 Кбит/сек
Ширина : 720 пикселей
Высота : 400 пикселей
Соотношение сторон : 16:9
Частота кадров : 23,976 (23976/1000) кадра/сек
Цветовое пространство : YUV
Субдискретизация насыщенности : 4:2:0
Битовая глубина : 8 бит
Тип развёртки : Прогрессивная
Метод сжатия : С потерями
Бит/(Пиксели*Кадры) : 0.188
Размер потока : 1,10 Гбайт (77%)
Библиотека кодирования : XviD 73Аудио #1
Идентификатор : 1
Формат : AC-3
Формат/Информация : Audio Coding 3
Расширение режима : CM (complete main)
Параметр Endianness формата : Big
Идентификатор кодека : 2000
Продолжительность : 2 ч. 1 м.
Вид битрейта : Постоянный
Битрейт : 192 Кбит/сек
Каналы : 2 канала
Расположение каналов : Front: L R
Частота : 48,0 КГц
Частота кадров : 31,250 кадров/сек (1536 spf)
Метод сжатия : С потерями
Размер потока : 167 Мбайт (11%)
Выравнивание : Разделение по промежуткам
Продолжительность промежутка : 42 мс. (1,00 видеокадр)
Время предзагрузки промежутка : 500 мс.
Заголовок : ОРТ: Сергей Быстрицкий, Виктор Петров, Игорь Тарадайкин и Наталья ГурзоАудио #2
Идентификатор : 2
Формат : AC-3
Формат/Информация : Audio Coding 3
Расширение режима : CM (complete main)
Параметр Endianness формата : Big
Идентификатор кодека : 2000
Продолжительность : 2 ч. 1 м.
Вид битрейта : Постоянный
Битрейт : 192 Кбит/сек
Каналы : 2 канала
Расположение каналов : Front: L R
Частота : 48,0 КГц
Частота кадров : 31,250 кадров/сек (1536 spf)
Метод сжатия : С потерями
Размер потока : 167 Мбайт (11%)
Выравнивание : Разделение по промежуткам
Продолжительность промежутка : 42 мс. (1,00 видеокадр)
Время предзагрузки промежутка : 500 мс.
Заголовок : Премьер Видео Фильм: Александр Клюквин и Людмила Ильина

Скриншот c названием фильма

Скриншоты

Трейлер

Яндекс.Метрика
Рейтинг@Mail.ru