Боевые ангелы / Xi yang tian shi / So Close (Кори Юэнь / Corey Yuen) [2002 г., боевик, WEB-DL, 720p] MVO [R5]

 

Создавать темы 16-Сен-2016 02:47

-Боевые ангелы / Xi yang tian shi / So Close-- Производство: Гонконг
Год выпуска: 2002 г.
Жанр: боевик
Продолжительность: 01:50:48Мировая премьера: 22 августа 2002
Дата выхода DVD: 26 июня 2003, «Columbia/Sony»
Перевод: Профессиональный (многоголосый, закадровый) [R5]
Режиссер: Кори Юэнь / Corey Yuen-В ролях: Шу Ци, Чжао Вэй, Карен Мок, Сон Сын Хон, Ясуаки Курата, Дерек Ван, Майкл Вэй, Сиу-Лун Ван, Шек Сау, Ки Ян Лам-Описание: У сестер Линн и Сью очень необычный и крайне опасный бизнес. Линн — безжалостный киллер-профи, а Сью оказывает ей полную техническую поддержку в выполнении заданий. Смертоносная пара называет себя «Боевые Ангелы» и имеет грозную славу лучших из лучших в криминальном мире.
Но после одного особенно громкого убийства на след сестер нападает дама-полицейский Ят Хонг, не уступающая «ангелицам» ни в хитрости, ни в боевых искусствах. Умная и упорная, она медленно, но верно подбирается к Линн и Сью, еще не ведая, что вскоре сама судьба заставит ее объединить силы со своими противницами и вместе сразиться с новым, могучим и страшным врагом!-
Качество видео: WEB-DL
Контейнер: MKV
Стандарт разрешения: 720p
Видео кодек: MPEG4 AVC
Аудио кодек: AC3
Видео: 1276x720 (16:9), 23.976 fps, 3965 Kbps (0.180 bit/pixel)
Аудио: AC3, 6 ch, 448 kbps, 48,0 kHz, CBR
Cубтитры: русские, английские
Формат субтитров: softsub (SRT)
Доп. информация о субтитрах: включаемые

Рецензия

Держи друзей близко, а врагов — еще ближеХороший фильм. Добротно снятый, как для 2002 года. Не знаю с какого перепугу такие низкие баллы.Сюжет не очень мудреный, но достаточно интересный. Прекрасно поставленные сцены драк и очень красивая музыка. В фильме есть все: красивые и трогательные моменты, перестрелки, погони, любовь и трупы.После этого фильма очень зауважала Ки Шу. Ей в основном доставались роли только милых девушек ("Перевозчик», «Послание в бутылке»), а она — еще тот крепкий орешек.Фильм запомнился ярким примером сестринской любви. Но к просмотру рекомендую всем, особенно любителям боевиков и приключений.9 из 10

Media Info

Общее
Уникальный идентификатор : 197534986414700490118666827660453016672 (0x949BDAC3227DF3929A65426E960CF460)
Полное имя : C:\герои 7\Боевые ангелы\Boevye Angely.2002.720p.WEB-DL.[pirat.ca].mkv
Формат : Matroska
Версия формата : Version 2
Размер файла : 3,49 Гбайт
Продолжительность : 1 ч. 50 м.
Общий поток : 4511 Кбит/сек
Название фильма : So Close (2002)
Дата кодирования : UTC 2016-09-14 16:32:54
Программа кодирования : mkvmerge v5.3.0 ('I could have danced') built on Feb 9 2012 10:38:07
Библиотека кодирования : libebml v1.2.3 + libmatroska v1.3.0Видео
Идентификатор : 1
Формат : AVC
Формат/Информация : Advanced Video Codec
Профиль формата : [email protected]/* */
Параметр CABAC формата : Нет
Параметр ReFrames формата : 2 кадра
Идентификатор кодека : V_MPEG4/ISO/AVC
Продолжительность : 1 ч. 50 м.
Битрейт : 3974 Кбит/сек
Ширина : 1276 пикселей
Высота : 720 пикселей
Соотношение сторон : 16:9
Режим частоты кадров : Постоянный
Частота кадров : 23,976 кадра/сек
Цветовое пространство : YUV
Субдискретизация насыщенности : 4:2:0
Битовая глубина : 8 бит
Тип развёртки : Прогрессивная
Бит/(Пиксели*Кадры) : 0.180
Размер потока : 3,08 Гбайт (88%)
Язык : English
Default : Да
Forced : Нет
Цветовой диапазон : Limited
Основные цвета : BT.709
Характеристики трансфера : BT.709
Коэффициенты матрицы : BT.709Аудио
Идентификатор : 2
Формат : AC-3
Формат/Информация : Audio Coding 3
Расширение режима : CM (complete main)
Параметр Endianness формата : Big
Идентификатор кодека : A_AC3
Продолжительность : 1 ч. 50 м.
Вид битрейта : Постоянный
Битрейт : 448 Кбит/сек
Каналы : 6 каналов
Расположение каналов : Front: L C R, Side: L R, LFE
Частота : 48,0 КГц
Частота кадров : 31,250 кадров/сек (1536 spf)
Метод сжатия : С потерями
Размер потока : 355 Мбайт (10%)
Заголовок : R5
Язык : Russian
Default : Да
Forced : НетТекст #1
Идентификатор : 3
Формат : UTF-8
Идентификатор кодека : S_TEXT/UTF8
Идентификатор кодека/Информация : UTF-8 Plain Text
Заголовок : Forced
Язык : Russian
Default : Да
Forced : НетТекст #2
Идентификатор : 4
Формат : UTF-8
Идентификатор кодека : S_TEXT/UTF8
Идентификатор кодека/Информация : UTF-8 Plain Text
Язык : Russian
Default : Нет
Forced : НетТекст #3
Идентификатор : 5
Формат : UTF-8
Идентификатор кодека : S_TEXT/UTF8
Идентификатор кодека/Информация : UTF-8 Plain Text
Язык : English
Default : Нет
Forced : НетМеню
00:00:00.000 : en:1
00:05:22.000 : en:2
00:08:51.000 : en:3
00:15:25.000 : en:4
00:19:17.000 : en:5
00:23:00.000 : en:6
00:30:46.000 : en:7
00:37:02.000 : en:8
00:47:39.000 : en:9
00:55:54.000 : en:10
01:01:36.000 : en:11
01:11:01.000 : en:12
01:22:23.000 : en:13
01:30:25.000 : en:14
01:35:43.000 : en:15
01:38:37.000 : en:16

Скриншот c названием фильма

Скриншоты

Трейлер

Яндекс.Метрика
Рейтинг@Mail.ru