[ Сегодня на трекере фрилич! Идет свободное скачивание без начисления Download ]

Штамм / The Strain / Сезон: 3 / Серии: 1-3 (13) (Дж. Майлз Дэйл / J. Miles Dale, ...) [2016 г., ужасы, триллер, фантастика, драма, WEB-DL, 1080p] MVO (LostFilm) + Original (Eng) + Sub (Rus, Eng) [Обновляемая]

 

Создавать темы 16-Сен-2016 02:30

-Штамм / The Strain
(3 сезон)
-- Производство: США
Жанр: ужасы, триллер, фантастика, драма
Год выпуска: 2016 г.
Продолжительность: 3x ~00:45:00Перевод: Профессиональный (многоголосый, закадровый) [LostFilm]
Оригинальный аудиопоток: английскийРежиссер: Дж. Майлз Дэйл / J. Miles Dale , Фил Абрахам / Phil Abraham, Питер Уэллер / Peter Weller, ...-В ролях: Кори Столл, Миа Маэстро, Дэвид Брэдли, Рихард Заммель, Шон Эстин, Джонатан Хайд, Кевин Дюран, Джек Кеси, Натали Браун, Бен Хайленд-Описание: Концептуальный хоррор от знаменитого мексиканского режиссёра Гильермо дель Торо в корне изменит отношение к вампирам, как к милым созданиям, способным любить и страдать. Вампиризм — это опасный заразный вирус, штамм которого содержит следы чудовищ древнего мира. Если глава Нью-Йоркского центра по контролю заболеваний и его коллеги не остановят распространение этого ужасного вируса, превращающего людей в невиданных доселе кровожадных монстров, человечество попадёт под угрозу вымирания.
В начале третьего сезона Нью-Йорк превратится в поле боя. Местные жители, брошенные властями на произвол судьбы, вынуждены самостоятельно бороться за выживание. Вопрос заключается лишь в одном — кто победит? Люди или вампиры? Главные герои выигрывают битвы, но не войну. Их терзают личные проблемы — предательство, разочарование, паранойя. Хозяин же в это время, как никогда, близок к осуществлению своего плана по необратимому изменению мира. Осталась ли надежда на спасение человечества?..- - -Качество видео: WEB-DL
Источник: Amazon Video
Контейнер: MKV
Стандарт разрешения: 1080p
Видео кодек: H.264/AVC
Аудио кодек: AC3
Видео: 1920×1080 at 23.976 fps, ~10000 kbps avg
Аудио: Russian: 48 kHz, AC3, 3/2 (L,C,R,l,r) + LFE ch, ~640.00 kbps avg |Многоголосый закадровый, LostFilm|
Аудио #2: English: 48 kHz, AC3, 3/2 (L,C,R,l,r) + LFE ch, ~640.00 kbps avgCубтитры: Russian (forced), English

Список серий

01: New York Strong / Вперёд, Нью-Йорк
02: Bad White / Зловещий белок
03: First Born / Первенец

Media Info

Код:
Format : Matroska
Format version : Version 4 / Version 2
File size : 3.23 GiB
Duration : 44mn 38s
Overall bit rate mode : Variable
Overall bit rate : 10.4 Mbps
Movie name : The Strain | Season 3 (2016) | 01: New York Strong
Encoded date : UTC 2016-09-15 16:33:59
Writing application : mkvmerge v6.0.0 ('Coming Up For Air') built on Jan 20 2013 09:52:00
Writing library : libebml v1.3.0 + libmatroska v1.4.0Video
ID : 1
Format : AVC
Format/Info : Advanced Video Codec
Format profile : [email protected]/* */
Format settings, CABAC : Yes
Format settings, ReFrames : 4 frames
Codec ID : V_MPEG4/ISO/AVC
Duration : 44mn 38s
Bit rate mode : Variable
Bit rate : 8 874 Kbps
Maximum bit rate : 15.0 Mbps
Width : 1 920 pixels
Height : 1 080 pixels
Display aspect ratio : 16:9
Frame rate mode : Constant
Frame rate : 23.976 fps
Color space : YUV
Chroma subsampling : 4:2:0
Bit depth : 8 bits
Scan type : Progressive
Bits/(Pixel*Frame) : 0.178
Stream size : 2.77 GiB (86%)
Title : The Strain | Season 3 (2016) | 01: New York Strong (Вперёд, Нью-Йорк)
Writing library : x264 core 148 r2623 d5b2374
Encoding settings : cabac=1 / ref=4 / deblock=1:-1:-1 / analyse=0x3:0x133 / me=umh / subme=9 / psy=1 / psy_rd=1.00:0.15 / mixed_ref=1 / me_range=24 / chroma_me=1 / trellis=2 / 8x8dct=1 / cqm=0 / deadzone=21,11 / fast_pskip=1 / chroma_qp_offset=-3 / threads=34 / lookahead_threads=5 / sliced_threads=0 / nr=150 / decimate=1 / interlaced=0 / bluray_compat=0 / constrained_intra=0 / bframes=8 / b_pyramid=2 / b_adapt=2 / b_bias=0 / direct=3 / weightb=1 / open_gop=0 / weightp=2 / keyint=120 / keyint_min=61 / scenecut=0 / intra_refresh=0 / rc_lookahead=120 / rc=crf / mbtree=1 / crf=18.0 / qcomp=0.60 / qpmin=0 / qpmax=69 / qpstep=4 / vbv_maxrate=15000 / vbv_bufsize=31250 / crf_max=0.0 / nal_hrd=vbr / filler=0 / ip_ratio=1.40 / aq=3:1.00
Language : English
Default : Yes
Forced : No
Color primaries : BT.709
Transfer characteristics : BT.709
Matrix coefficients : BT.709
Color range : LimitedAudio #1
ID : 2
Format : AC-3
Format/Info : Audio Coding 3
Mode extension : CM (complete main)
Format settings, Endianness : Big
Codec ID : A_AC3
Duration : 44mn 38s
Bit rate mode : Constant
Bit rate : 640 Kbps
Channel(s) : 6 channels
Channel positions : Front: L C R, Side: L R, LFE
Sampling rate : 48.0 KHz
Bit depth : 16 bits
Compression mode : Lossy
Stream size : 204 MiB (6%)
Title : DD 5.1 @ 640 kbps (LostFilm)
Language : Russian
Default : Yes
Forced : NoAudio #2
ID : 3
Format : AC-3
Format/Info : Audio Coding 3
Mode extension : CM (complete main)
Format settings, Endianness : Big
Codec ID : A_AC3
Duration : 44mn 38s
Bit rate mode : Constant
Bit rate : 640 Kbps
Channel(s) : 6 channels
Channel positions : Front: L C R, Side: L R, LFE
Sampling rate : 48.0 KHz
Bit depth : 16 bits
Compression mode : Lossy
Stream size : 204 MiB (6%)
Title : DD 5.1 @ 640 kbps
Language : English
Default : No
Forced : NoText #1
ID : 4
Format : UTF-8
Codec ID : S_TEXT/UTF8
Codec ID/Info : UTF-8 Plain Text
Title : Forced
Language : Russian
Default : Yes
Forced : YesText #2
ID : 5
Format : UTF-8
Codec ID : S_TEXT/UTF8
Codec ID/Info : UTF-8 Plain Text
Title : Full
Language : English
Default : No
Forced : NoMenu
00:00:00.000 : en:FX
00:00:18.000 : en:Recap
00:01:36.000 : en:Fet helps direct a team of Navy Seals
00:03:44.000 : en:Opening Credits
00:04:33.000 : en:Break
00:04:37.000 : en:A patrol finds Ephraim in his home
00:06:58.000 : en:Justine tells Ephraim about her dwindling forces
00:11:33.000 : en:Break
00:11:36.000 : en:Ephraim barters for food
00:13:14.000 : en:Quinlan helps Abraham decipher an old book
00:14:10.000 : en:Fet reports on the Navy Seal's progress to Justine
00:15:30.000 : en:Ephraim has a close encounter while looking for fuel
00:18:52.000 : en:Break
00:18:56.000 : en:Gus prepares dinner for his mother
00:20:37.000 : en:Quinlan speaks to the ancients
00:22:51.000 : en:Fet explains his prejudice to Quinlan
00:27:31.000 : en:Break
00:27:35.000 : en:Fet leads another team of soldiers underground
00:30:12.000 : en:Eichorst leads the soldiers to their deaths
00:36:45.000 : en:Break
00:36:48.000 : en:Kelly tells Zach she made a deal with The Master
00:38:32.000 : en:Kelly proposes a trade
00:42:19.000 : en:End Credits
00:43:03.000 : en:FX

Скриншот c названием фильма

Скриншоты

Яндекс.Метрика
Рейтинг@Mail.ru