[ Сегодня на трекере фрилич! Идет свободное скачивание без начисления Download ]

Крейсер / USS Indianapolis: Men of Courage (2016) WEBRip | L

 

Создавать темы 15-Сен-2016 06:01

Крейсер / USS Indianapolis: Men of Courage
Страна: США
Производство: Hannibal Pictures, USS Indianapolis Production
Год выпуска: 2016
Жанр: боевик, военный
Продолжительность: 02:07:28-Режиссер: Марио Ван Пиблз
Авторы сценария: Кэм Кэннон, Ричард Рионда Дель Кастро-В ролях: Николас Кейдж, Том Сайзмор, Томас Джейн, Мэтт Лантер, Вероника Розати, Коуди Уокер, Брайан Прэсли, Эмили Теннант, К. Харрис
Описание: Лето 1945 года. До конца Второй мировой оставались считанные недели… Крейсер ВМС США «Индианополис» доставил на американскую военную базу на острове Тиниан боеголовку атомной бомбы. На обратном рейде корабль был торпедирован японцами и пошёл ко дну. «SOS!» капитана Маквэя не был услышан. И живые позавидовали мёртвым: палящее солнце и зубы акул, жажда и галлюцинации, безумие и адские муки отчаяния…-
Перевод: Любительский (многоголосый, закадровый) | Синема УС
Субтитры: нет-Качество: WEBRip
Формат: АVI
Видео кодек: XviD
Аудио кодек: АС3
Видео: 720x304 (2.35:1), 23.976 fps, XviD ~1 437 kbps avg
Аудио: 48 kHz, AC3 Dolby Digital, 2/0 (L,R) ch, ~128 kbps-Дата премьеры (мир): 24 августа 2016
Дата премьеры (РФ): 22 сентября 2016, «Парадиз»

Media Info

General
Полное имя : USS.Indianapolis.Men.of.Courage.2016.P.WEBRip.14OOMB_KOSHARA.avi
Формат : AVI
Формат/Информация : Audio Video Interleave
Размер файла : 1,46 Гбайт
Продолжительность : 2 ч. 7 м.
Общий поток : 1639 Кбит/сек
Программа кодирования : VirtualDubMod 1.5.10.2 (build 2540/release)
Библиотека кодирования : VirtualDubMod build 2540/release
Видео
Идентификатор : 0
Формат : MPEG-4 Visual
Профиль формата : Advanced [email protected]
Параметр BVOP формата : Да
Параметр QPel формата : Нет
Параметр GMC формата : Без точки перехода
Параметр матрицы формата : Выборочная
Идентификатор кодека : XVID
Идентификатор кодека/Подсказка : XviD
Продолжительность : 2 ч. 7 м.
Битрейт : 1437 Кбит/сек
Ширина : 720 пикселей
Высота : 304 пикселя
Соотношение сторон : 2,35:1
Частота кадров : 23,976 (24000/1001) кадра/сек
Цветовое пространство : YUV
Субдискретизация насыщенности : 4:2:0
Битовая глубина : 8 бит
Тип развёртки : Прогрессивная
Метод сжатия : С потерями
Бит/(Пиксели*Кадры) : 0.274
Размер потока : 1,28 Гбайт (88%)
Библиотека кодирования : XviD 1.2.1 (UTC 2008-12-04)
Аудио
Идентификатор : 1
Формат : AC-3
Формат/Информация : Audio Coding 3
Расширение режима : CM (complete main)
Параметр Endianness формата : Big
Идентификатор кодека : 2000
Продолжительность : 2 ч. 7 м.
Вид битрейта : Постоянный
Битрейт : 128 Кбит/сек
Каналы : 2 канала
Расположение каналов : Front: L R
Частота : 48,0 КГц
Частота кадров : 31,250 кадров/сек (1536 spf)
Метод сжатия : С потерями
Размер потока : 117 Мбайт (8%)
Выравнивание : Разделение по промежуткам

Скриншоты

Яндекс.Метрика
Рейтинг@Mail.ru