Виртуозность / Virtuosity (Бретт Леонард / Brett Leonard) [1995 г., фантастика, боевик, триллер, криминал, BDRip-AVC] MVO

 

Создавать темы 13-Сен-2016 03:39

-Виртуозность / Virtuosity-- Производство: США
Год выпуска: 1995 г.
Жанр: фантастика, боевик, триллер, криминал
Продолжительность: 01:45:53Мировая премьера: 4 августа 1995
Перевод: Профессиональный (многоголосый, закадровый) [СТС]
Режиссер: Бретт Леонард / Brett Leonard-В ролях: Уильям Файтнер, Расселл Кроу, Дэнзел Вашингтон, Уильям Форсайт, Кевин Дж. О'Коннор, Луиз Флетчер, Костас Мэндилор, Стивен Спинелла, Келли Линч-Описание: Его имя Сид 6.7. Он создан из двухсот отборных подонков, негодяев и психопатов, наделен интеллектом и хитростью самых знаменитых серийных убийц в истории человечества.Сид 6,7 был специально придуман, как совершенное воплощение зла и жестокости, для особой компьютерной программы, помогающей полицейским ловить преступников. Но случилось непоправимое.Сиду удалось сбежать из кибернетического пространства в реальный мир. Идеальный преступник был на свободе и жаждал преподать людям страшный урок…Единственным человеком, который встал на пути компьютерного садиста, оказался полицейский по имени Паркер Барнис. Но офицеру Барнису всегда приходилось иметь дело с бандитами из плоти и крови. Сможет ли он совладать с неуязвимым Сидом 6,7?-
Качество видео: BDRip-AVC
Контейнер: MKV
Видео кодек: MPEG4 AVC
Аудио кодек: AC3
Видео: 1152x492 (2.35:1), 23.976 fps, AVC ~4 358 kbps avg, 0.321 bit/pixel
Аудио: 48 kHz, AC3 Dolby Digital, 2/0 (L,C) ch, 192.00 kbps
Cубтитры: отсутствуют

Доп. информация

В 1995 году Терри Биссоном была написана одноименная новеллизация сценария Эрика Бернта.
Сид в фильме состоит из вещества под названием Наногу (Nanogoo). В реальности наногу был сделан из сиропа «Log Cabin», смешанного с голубыми тенями для век.
В качестве саундтрека использованы несколько песен в исполнении группы Рассела Кроу «30 Odd Foot of Grunts».
Первый полнометражный фильм телевизионной актрисы Кейли Куоко.

Рецензия

НанотехнологииЭтот фильм мог бы стать первосортным удобрением, однако же нет!Ненавижу спойлеры, поэтому пересказывать содержание фильма в своих отзывах мне не хочется, скажу только одно — отлично прорисованы все персонажи. Пусть даже как подобает в таком жанре, они однослойны, но это, к счастью, не влияет на общее впечатление.Сюжет продуман достаточно неплохо, для того времени вполне актуально. Компьютерная графика неплоха, идеи о том, что со временем все станет таким интерактивным, похожа на реалии сегодняшних дней. Так что они угадали. Нанотехнологии, высокоинтеллектуальные роботы — это всегда привлекало человека. Наверное так же, как инвазии инопланетян в плотные слои атмосферы Земли и попытка завоевать мир в более безвкусных фильмах.Безусловно, очень большой эмоциональный заряд несут сами актеры и великолепно представленные ими персонажи. Паркер Барнс — зануда и в то же время самоуверенный и взрывной человек, психолог — несчастная одинокая мать с отсутствием личной жизни и, безусловно, Сид 6,7, он же Рассел Кроу, машина с эмоциями и своим humble opinion на все вещи.Главная прелесть фильма в том, что как в серьезном кино, тут сложно определить, кто на самом деле хороший, а кто плохой. (Может, конечно, только мне)С одной стороны Паркер — отец семейства, которое погибло от рук психически нездорового террориста, мысль о благородной мести которому не оставляет бывшего полицейского на протяжении всего фильма, — наверное, он хороший человек, раз так рьяно борется за справедливость.С другой стороны Сид 6,7 — он стал таким, потому что мы такие, вобрал в себя людские пороки, он не виноват ни в чем — мы сами его таким создали.Можно посмотреть на ситуацию с двух сторон — что добрый это тот, кто был(есть) в погонах или со звездой шерифа или же — люди слишком хорошего мнения о себе, они сами во всем виноваты. А Паркер со своей вспыльчивостью и прямолинейностью не всегда совершает правильные поступки…Мне больше нравится второй вариант. Так и смотреть фильм становится увлекательнее, и серое вещество головного мозга как-то подпитывается.Высокая оценка, да. Неплохой и закрученный сюжет. Интересные для того времени спецэффекты. Видно, что люди старались. Молодой и сексапильный мерзавец в исполнении Рассела Кроу. (Возможно, если бы Рассел в будущем последовал примеру, допустим, Гэри Олдмана, и играл бы разных персонажей, а не только хороших, то как актер он бы смотрелся интереснее). Противный и скучный полицейский в исполнении Дензела Вашингтона и несчастный психолог в исполнении Келли Линч. Все прекрасно! Все сходится и вполне могло бы иметь место в будущей действительности.9 из 10

Media Info

Общее
Уникальный идентификатор : 231265797375019250297772503375548265806 (0xADFC2C243900CD9CB991AB50CD9C354E)
Полное имя : E:\!Виртуозность\Virtuosity.1995.720p.BDRip-AVC.[pirat.ca].mkv
Формат : Matroska
Версия формата : Version 2
Размер файла : 3,45 Гбайт
Продолжительность : 1 ч. 45 м.
Общий поток : 4660 Кбит/сек
Дата кодирования : UTC 2016-09-12 11:12:53
Программа кодирования : mkvmerge v5.3.0 ('I could have danced') built on Feb 9 2012 10:38:07
Библиотека кодирования : libebml v1.2.3 + libmatroska v1.3.0Видео
Идентификатор : 1
Формат : AVC
Формат/Информация : Advanced Video Codec
Профиль формата : [email protected]/* */
Параметр CABAC формата : Да
Параметр ReFrames формата : 14 кадров
Идентификатор кодека : V_MPEG4/ISO/AVC
Продолжительность : 1 ч. 45 м.
Битрейт : 4376 Кбит/сек
Ширина : 1152 пикселя
Высота : 492 пикселя
Соотношение сторон : 2,35:1
Режим частоты кадров : Постоянный
Частота кадров : 23,976 (23976/1000) кадра/сек
Цветовое пространство : YUV
Субдискретизация насыщенности : 4:2:0
Битовая глубина : 8 бит
Тип развёртки : Прогрессивная
Бит/(Пиксели*Кадры) : 0.322
Размер потока : 3,24 Гбайт (94%)
Библиотека кодирования : x264 core 138 r2358kMod 9e941d1
Настройки программы : cabac=1 / ref=14 / deblock=1:-3:-3 / analyse=0x3:0x133 / me=umh / subme=11 / psy=1 / fade_compensate=0.00 / psy_rd=1.05:0.00 / mixed_ref=1 / me_range=48 / chroma_me=1 / trellis=2 / 8x8dct=1 / cqm=0 / deadzone=21,11 / fast_pskip=1 / chroma_qp_offset=-4 / threads=12 / lookahead_threads=3 / sliced_threads=0 / nr=0 / decimate=1 / interlaced=0 / bluray_compat=0 / constrained_intra=0 / bframes=16 / b_pyramid=2 / b_adapt=2 / b_bias=0 / direct=3 / weightb=1 / open_gop=0 / weightp=2 / keyint=250 / keyint_min=23 / scenecut=40 / intra_refresh=0 / rc_lookahead=60 / rc=crf / mbtree=0 / crf=19.0000 / qcomp=0.60 / qpmin=0 / qpmax=69 / qpstep=4 / vbv_maxrate=25000 / vbv_bufsize=31250 / crf_max=0.0 / nal_hrd=none / ip_ratio=1.30 / pb_ratio=1.20 / aq=3:0.85
Язык : English
Default : Да
Forced : Нет
Цветовой диапазон : Limited
Коэффициенты матрицы : BT.709Аудио
Идентификатор : 2
Формат : AC-3
Формат/Информация : Audio Coding 3
Расширение режима : CM (complete main)
Параметр Endianness формата : Big
Идентификатор кодека : A_AC3
Продолжительность : 1 ч. 45 м.
Вид битрейта : Постоянный
Битрейт : 192 Кбит/сек
Каналы : 2 канала
Расположение каналов : Front: L R
Частота : 48,0 КГц
Частота кадров : 31,250 кадров/сек (1536 spf)
Метод сжатия : С потерями
Размер потока : 145 Мбайт (4%)
Заголовок : STS
Язык : Russian
Default : Да
Forced : ДаМеню
00:00:00.000 : en:Chapter 01
00:07:48.843 : en:Chapter 02
00:12:16.235 : en:Chapter 03
00:16:12.596 : en:Chapter 04
00:18:01.371 : en:Chapter 05
00:21:19.194 : en:Chapter 06
00:25:11.384 : en:Chapter 07
00:31:30.930 : en:Chapter 08
00:35:41.472 : en:Chapter 09
00:40:19.250 : en:Chapter 10
00:48:51.136 : en:Chapter 11
00:52:28.061 : en:Chapter 12
00:56:36.518 : en:Chapter 13
01:02:41.883 : en:Chapter 14
01:06:55.136 : en:Chapter 15
01:12:33.849 : en:Chapter 16
01:20:54.516 : en:Chapter 17
01:27:40.380 : en:Chapter 18
01:32:57.071 : en:Chapter 19
01:38:44.877 : en:Chapter 20

Скриншот c названием фильма

Скриншоты

Трейлер

Яндекс.Метрика
Рейтинг@Mail.ru